(Шансон) Бутырка - Вернусь домой - 2014, FLAC (image+.cue), lossless

 
Автор Сообщение

sergej644 ®

Пол:

Стаж: 4 года 11 месяцев

Сообщений: 6035

Откуда: Soviet Union



Награды: Нет

Торрент-статистика

Создавать темы 24-Окт-2014 07:49

[Цитировать]

Бутырка / Вернусь домой- Жанр: Шансон
Носитель: CD
Страна-производитель диска: Россия
Год издания: 2014
Издатель (лейбл): Master Sound & Русский Шансон
Аудиокодек: FLAC (*.flac)
Тип рипа: image+.cue
Битрейт аудио: lossless
Продолжительность: 40:24
Источник (релизер): defyz86
Наличие сканов в содержимом раздачи: да
--

Треклист

01. Вернусь домой (4:10)
02. Дарья (4:02)
03. Что же это было (3:54)
04. Качнем вагон (3:32)
05. Воздух весны (4:51)
06. Ни пенсии, ни хаты (4:40)
07. Перекресток (3:44)
08. И полетят рубли (3:45)
09. Женщина (3:06)
10. Ветеран (4:36)
-Слова и музыка: Олег Симонов.
Вокал: Михаил Борисов и Наталья Сигаева (3).
Аранжировка: Валерий Лизнев и Андрей Журавлев (5,9).

Лог создания рипа (EAC)

Exact Audio Copy V1.0 beta 3 from 29. August 2011
Отчёт EAC об извлечении, выполненном 17. сентября 2014, 22:37
Бутырка / Вернусь домой
Дисковод: ASUS    DRW-22B3S   Adapter: 0  ID: 1
Режим чтения                 : Достоверность
Использование точного потока : Да
Отключение кэша аудио        : Да
Использование указателей C2  : Нет
Коррекция смещения при чтении                     : 6
Способность читать области Lead-in и Lead-out     : Нет
Заполнение пропущенных сэмплов тишиной            : Да
Удаление блоков с тишиной в начале и конце        : Нет
При вычислениях CRC использовались нулевые сэмплы : Да
Интерфейс                                         : Встроенный Win32-интерфейс для Win NT/2000
Выходной формат : Внутренние WAV-операции
Формат сэмплов  : 44.100 Гц; 16 бит; стерео
TOC извлечённого CD
     Трек |   Старт  | Длительность | Начальный сектор | Конечный сектор
    ---------------------------------------------------------------------
       1  |  0:00.00 |    4:10.03   |           0      |      18752
       2  |  4:10.03 |    4:02.46   |       18753      |      36948
       3  |  8:12.49 |    3:54.62   |       36949      |      54560
       4  | 12:07.36 |    3:32.66   |       54561      |      70526
       5  | 15:40.27 |    4:51.51   |       70527      |      92402
       6  | 20:32.03 |    4:40.24   |       92403      |     113426
       7  | 25:12.27 |    3:44.19   |      113427      |     130245
       8  | 28:56.46 |    3:45.59   |      130246      |     147179
       9  | 32:42.30 |    3:06.06   |      147180      |     161135
      10  | 35:48.36 |    4:36.04   |      161136      |     181839
Характеристики диапазона извлечения и сообщения об ошибках
Выбранный диапазон
     Имя файла C:\defyz86\2014 - Бутырка - Вернусь домой\Бутырка - Вернусь домой.wav
     Пиковый уровень 96.5 %
     Скорость извлечения 3.2 X
     Качество диапазона 100.0 %
     CRC теста 4E094343
     CRC копии 4E094343
     Копирование... OK
Ошибок не произошло
AccurateRip: сводка
Трек  1  отсутствует в базе данных
Трек  2  отсутствует в базе данных
Трек  3  отсутствует в базе данных
Трек  4  отсутствует в базе данных
Трек  5  отсутствует в базе данных
Трек  6  отсутствует в базе данных
Трек  7  отсутствует в базе данных
Трек  8  отсутствует в базе данных
Трек  9  отсутствует в базе данных
Трек 10  отсутствует в базе данных
Ни одного трека нет в базе AccurateRip
Конец отчёта
==== Контрольная сумма отчёта 78EA613C977D75A53CF69012CD7DE1CCE7CD0FF0B7878CE052BA0C2EE317894E ====

Лог проверки качества (Audiochecker)

AUDIOCHECKER v2.0 beta (build 457) - by Dester - opdester@freemail.hu
~~~~~~~~~~~~~~~~~~~~~~~~~~~~~~~~~~
-=== НЕ РЕДАКТИРУЙТЕ ЭТОТ ФАЙЛ! ===-
Путь: ...\2014 - Бутырка - Вернусь домой
1 -=- Бутырка - Вернусь домой.flac -=- CDDA (100%)
216408020

Скриншот спектра частот (Adobe Audition)

Диск из личной коллекции!
Рип снят в режиме Test&Copy + сканы обложек и диска 600 dpi !!!
Приятного Всем прослушивания!
[Профиль] [ЛС]

Создавать темы 13-Авг-2015 10:06 (спустя 9 месяцев 20 дней)

Топик был перенесен из форума Отечественная в форум Сhanson
sergej644
 
Кто просматривает тему:

Показать сообщения:    

Текущее время: Сегодня 07:06

Часовой пояс: GMT



Вы не можете начинать темы
Вы не можете отвечать на сообщения
Вы не можете редактировать свои сообщения
Вы не можете удалять свои сообщения
Вы не можете голосовать в опросах
Вы не можете прикреплять файлы к сообщениям
Вы не можете скачивать файлы