Бури войны / The Storms of War (Пол Мартон / Paul Murton) (5 серий из 5) [2004, Документальный минисериал, DVB]

 
Автор Сообщение

reversefile ®

Пол:

Стаж: 4 года 5 месяцев

Сообщений: 842

Откуда: ReverseFile.org



Награды: Нет

Торрент-статистика

Создавать темы 24-Июл-2014 17:55

[Цитировать]

Бури войны / The Storms of War
Дата/Год выпуска: 2004
Страна: США
Жанр: Документальный минисериал
Продолжительность: 5 серий по 23 мин
Перевод: Одноголосый закадровый
Русские субтитры: нет
Оригинальная аудиодорожка: английский
Режиссер: Пол Мартон / Paul Murton
Телеканал: Discovery
Описание: Югославский военный метеоролог доктор Владимир Янкович бросает вызов наиболее экстремальным погодным условиям на земле, чтобы показать, как погодные условия играют важную роль в возможности армии проиграть или выиграть войну. Используя сочетание натурных съемок, лабораторных экспериментов и архивных материалов, а также последние метеорологические технологии, "Бури войны" исследует, как погода может повлиять на войну. Янкович также изучает из первых рук условия знаменитых сражений, от грязи на Ипре, до циклонов Карибского моря в кампании на Гренаде.
Сэмпл: http://multi-up.com/971771
качество: DVB
формат: TS/M2TS
Видео: AVC, аноморф. 720х576, 4:3, 2212 Кбит/сек, 25 fps
Аудио 1: (Rus): MPEG Audio, 160 Кбит/сек, 48 КГц, 2 канала
Аудио 2: (Eng): MPEG Audio, 160 Кбит/сек, 48 КГц, 2 канала

Список выпусков/серий

1. Война в снегу. Битва за Альпы, 1915-1918 годы
2. Война в канале. Высадка 6 июня 1944 года
2. Война в грязи. Битва под Ипром, 1917 год
3. Война в джунглях. Битва при Дьен Бьен Фу, 1954 год
4. Война в пустыне. Битва под Эль-Аламейном, 1942 год

MediaInfo

ОбщееИдентификатор : 16 (0x10)Полное имя : The Storms Of War_The Jungle War_The Battle for Dien Bien Phu 1954.tsФормат : MPEG-TSРазмер файла : 448 МбайтПродолжительность : 23 м.Режим общего битрейта : ПеременныйОбщий поток : 2667 Кбит/сек
ВидеоИдентификатор : 1407 (0x57F)Идентификатор меню : 407 (0x197)Формат : AVCФормат/Информация : Advanced Video CodecПрофиль формата : Main@L3.0Параметр CABAC формата : ДаПараметр ReFrames формата : 3 кадраИдентификатор кодека : 27Продолжительность : 23 м.Битрейт : 2212 Кбит/секШирина : 720 пикселейВысота : 576 пикселейСоотношение сторон : 4:3Частота кадров : 25,000 кадров/секСтандарт вещания : PALЦветовое пространство : YUVСубдискретизация насыщенности : 4:2:0Битовая глубина : 8 битТип развёртки : ПрогрессивнаяБит/(Пиксели*Кадры) : 0.213Размер потока : 371 Мбайт (83%)Основные цвета : BT.601 PALХарактеристики трансфера : BT.470 System B, BT.470 System GКоэффициенты матрицы : BT.601
Аудио #1Идентификатор : 2407 (0x967)Идентификатор меню : 407 (0x197)Формат : MPEG AudioВерсия формата : Version 1Профиль формата : Layer 2Идентификатор кодека : 4Продолжительность : 23 м.Вид битрейта : ПостоянныйБитрейт : 160 Кбит/секКаналы : 2 каналаЧастота : 48,0 КГцМетод сжатия : С потерямиЗадержка видео : 101 мс.Размер потока : 26,9 Мбайт (6%)Язык : stdЯзык, дополнительно : Clean effects
Аудио #2Идентификатор : 3407 (0xD4F)Идентификатор меню : 407 (0x197)Формат : MPEG AudioВерсия формата : Version 1Профиль формата : Layer 2Идентификатор кодека : 4Продолжительность : 23 м.Вид битрейта : ПостоянныйБитрейт : 160 Кбит/секКаналы : 2 каналаЧастота : 48,0 КГцМетод сжатия : С потерямиЗадержка видео : 5 мс.Размер потока : 26,9 Мбайт (6%)Язык : EnglishЯзык, дополнительно : Clean effects

Скриншоты

[Профиль] [ЛС]
Кто просматривает тему:

Показать сообщения:    

Текущее время: Сегодня 20:43

Часовой пояс: GMT



Вы не можете начинать темы
Вы не можете отвечать на сообщения
Вы не можете редактировать свои сообщения
Вы не можете удалять свои сообщения
Вы не можете голосовать в опросах
Вы не можете прикреплять файлы к сообщениям
Вы не можете скачивать файлы