Бунтующая юность / Протест молодости / Youth in Revolt (Мигель Артета / Miguel Arteta) [2009, США, драма, мелодрама, комедия, HDRip] MVO (OzzTV) + MVO (Кинопоказ) + Original Eng

 
Автор Сообщение

TorrentFilm ®

Пол:

Стаж: 2 года

Сообщений: 7741



Награды: Нет

Торрент-статистика

Создавать темы 15-Июл-2015 00:08

[Цитировать]

Бунтующая юность / Протест молодости / Youth in Revolt
Страна: США
Жанр: драма, мелодрама, комедия
Год выпуска: 2009
Продолжительность: 01:29:27
Перевод: Профессиональный (многоголосый закадровый) OzzTV
Перевод 2: Профессиональный (многоголосый закадровый) Кинопоказ
Cубтитры: нет
Оригинальная аудиодорожка: английский
Режиссер: Мигель Артета / Miguel Arteta
В ролях: Майкл Сера, Портия Даблдэй, Джин Смарт, Зак Галифианакис, Эрик Кнудсен, Адхир Кальян, Стив Бушеми, Фред Уиллард, Эри Грейнор, Рэй Лиотта
Описание: Ник Твисп типичный нерд. Любит Синатру, Феллини, отчаянно строчит на компьютере про свою нелегкую жизнь под одной крышей с непутевой матерью и её бородатым бойфрендом-мужланом. Стоит ли говорить, Нику крупно не повезло родиться в далекой американской глубинке, где он беспросветно непонят и оттого одинок. Единственный друг и тот с психическими расстройствами на почве неразделенной любви. Над главным героем давно висит дамоклов меч девственности. И судьба наконец-то дает Нику шанс в виде путешествия в трейлерный парк, где он внезапно встречает роковую девушку по имени Шини Сондерс с нездоровым пристрастием ко всему французскому. Неловкий массаж. Первый поцелуй и приходит время возвращаться обратно. Но, Ник во что бы то не стало решает быть с Шини. И тут то гормоны главного героя выводят на сцену его альтер-эго, собственного Тайлера Дёрдона, по имени Франсуа Диллинджер. Последний носит пшеничные усики, элегантно одевается, все время держит во рту сигарету и колотит пластинки обожаемого Синатры о стену. Словом, Франсуа служит для того, чтобы научить рохлю-Ника поступать по-мужски. А на деле, стремительно превращает жизнь некогда заурядного ботаника в сущий ад.
Сэмпл: http://multi-up.com/1058046
Качество видео: HDRip
Формат видео: AVI
Видео: MPEG4, XviD, 720x384 (1.875), 23.976 fps, 1 355 Kbps (0.204 bit/pixel)
Аудио: AC-3, 48.0 KHz, 6 ch, 384 Kbps, CBR - OzzTV
Аудио 2: AC-3, 48.0 KHz, 2 ch, 192 Kbps, CBR - Кинопоказ
Аудио 3: AC-3, 48.0 KHz, 6 ch, 384 Kbps, CBR - английский

MediaInfo

Общее
Полное имя : K:\Бунтующая юность.avi
Формат : AVI
Формат/Информация : Audio Video Interleave
Размер файла : 1,46 Гбайт
Продолжительность : 1 ч. 29 м.
Общий поток : 2334 Кбит/сек
Название фильма : Бунтующая юность / Протест молодости / Youth in Revolt (2009)
Программа кодирования : VirtualDubMod 1.5.10.2 (build 2540/release)
Библиотека кодирования : VirtualDubMod build 2540/release
Авторское право : miha2154
Видео
Идентификатор : 0
Формат : MPEG-4 Visual
Профиль формата : Advanced Simple@L5
Параметр BVOP формата : 1
Параметр QPel формата : Нет
Параметр GMC формата : Без точки перехода
Параметр матрицы формата : Выборочная
Идентификатор кодека : XVID
Идентификатор кодека/Подсказка : XviD
Продолжительность : 1 ч. 29 м.
Битрейт : 1355 Кбит/сек
Ширина : 720 пикселей
Высота : 384 пикселя
Соотношение сторон : 1,85:1
Частота кадров : 23,976 кадра/сек
Цветовое пространство : YUV
Субдискретизация насыщенности : 4:2:0
Битовая глубина : 8 бит
Тип развёртки : Прогрессивная
Метод сжатия : С потерями
Бит/(Пиксели*Кадры) : 0.204
Размер потока : 867 Мбайт (58%)
Библиотека кодирования : XviD 65
Аудио #1
Идентификатор : 1
Формат : AC-3
Формат/Информация : Audio Coding 3
Расширение режима : CM (complete main)
Параметр Endianness формата : Big
Идентификатор кодека : 2000
Продолжительность : 1 ч. 29 м.
Вид битрейта : Постоянный
Битрейт : 384 Кбит/сек
Каналы : 6 каналов
Расположение каналов : Front: L C R, Side: L R, LFE
Частота : 48,0 КГц
Метод сжатия : С потерями
Размер потока : 246 Мбайт (16%)
Выравнивание : Разделение по промежуткам
Продолжительность промежутка : 42 мс. (1,00 видеокадр)
Время предзагрузки промежутка : 500 мс.
Заголовок : Профессиональный (многоголосый закадровый) OzzTV
Аудио #2
Идентификатор : 2
Формат : AC-3
Формат/Информация : Audio Coding 3
Расширение режима : CM (complete main)
Параметр Endianness формата : Big
Идентификатор кодека : 2000
Продолжительность : 1 ч. 29 м.
Вид битрейта : Постоянный
Битрейт : 192 Кбит/сек
Каналы : 2 канала
Расположение каналов : Front: L R
Частота : 48,0 КГц
Метод сжатия : С потерями
Размер потока : 123 Мбайт (8%)
Выравнивание : Разделение по промежуткам
Продолжительность промежутка : 42 мс. (1,00 видеокадр)
Время предзагрузки промежутка : 500 мс.
Заголовок : Профессиональный (многоголосый закадровый) Кинопоказ
Аудио #3
Идентификатор : 3
Формат : AC-3
Формат/Информация : Audio Coding 3
Расширение режима : CM (complete main)
Параметр Endianness формата : Big
Идентификатор кодека : 2000
Продолжительность : 1 ч. 29 м.
Вид битрейта : Постоянный
Битрейт : 384 Кбит/сек
Каналы : 6 каналов
Расположение каналов : Front: L C R, Side: L R, LFE
Частота : 48,0 КГц
Метод сжатия : С потерями
Размер потока : 246 Мбайт (16%)
Выравнивание : Разделение по промежуткам
Продолжительность промежутка : 42 мс. (1,00 видеокадр)
Время предзагрузки промежутка : 500 мс.
Заголовок : Английский
[Профиль] [ЛС]

Создавать темы 06-Авг-2015 22:23 (спустя 22 дня)

Топик был перенесен из форума Фильмы до 2014 года в форум Фильмы до 2012 года
sergej644
 

Создавать темы 12-Июн-2016 08:49 (спустя 10 месяцев 28 дней)

Топик был перенесен из форума Фильмы 2011 года в форум Фильмы 2009 года
Russian Mafia
 
Кто просматривает тему:

Показать сообщения:    

Текущее время: Сегодня 10:47

Часовой пояс: GMT



Вы не можете начинать темы
Вы не можете отвечать на сообщения
Вы не можете редактировать свои сообщения
Вы не можете удалять свои сообщения
Вы не можете голосовать в опросах
Вы не можете прикреплять файлы к сообщениям
Вы не можете скачивать файлы