Бунтарка / Radio Rebel (2012) WEB-DL 720p | D

 
Автор Сообщение

sergej644 ®

Пол:

Стаж: 4 года 11 месяцев

Сообщений: 6046

Откуда: Soviet Union



Награды: Нет

Торрент-статистика

Создавать темы 10-Фев-2015 14:35

[Цитировать]

Информация о фильме
Название: Бунтарка
Оригинальное название: Radio Rebel
Год выхода: 2012
Жанр: Мелодрама, комедия, семейный
Режиссер: Питер Хауит
В ролях: Дебби Райан, Sarena Parmar, Адам ДиМарко, Мерритт Паттерсон, Элли Бертрам, Айэйн Белчер, Роуэн Кан Аттикус, Дин Митчел, Мерседес Де Ла Зерда, Андреа Брукс
О фильме:
Старшекласснице Таре приходится многое преодолеть, чтобы побороть застенчивость и заявить о себе во весь голос. На первый взгляд, она настоящая «серая мышка». Но в домашней радиостудии скромница, которая панически боится выступления у доски, превращается в звезду эфира. Стоит закрыться в своей комнате и надеть наушники, и она уже не тихоня, а возмутительница спокойствия — Бунтарка!
Не стесняясь в выражениях, девушка высказывает все, что думает о своих обидчиках. Ее радиошоу интригует весь город: в незнакомку влюбляются и одноклассники, и парень ее мечты. Но лишь один человек — отчим Тары, продюсер радиостанции штата — знает ее секрет. Он приглашает дочь в большой эфир, и выступления Бунтарки теперь слышит вся Америка. Сможет ли юная звезда сбросить маску анонимности и показать миру свое истинное «я»?

Страна: США
Студия: Goldenring Productions, Morp Services, Two 4 The Money Media
Продолжительность: 01:29:37
Перевод: Дублированный [канал Дисней]
Файл
Кодек: H.264
Качество: WEB-DL 720p
Видео: MPEG-4 / AVC, 1280x718 (16:9), 23.976 fps ~ 3897 Kbps
Звук:
AC3, 48 KHz 2 ch ~ 192 Kb/s (русский )
AC3, 48 KHz 6 ch ~ 384 Kb/s (английский)
Субтитры: отсутствуют

MI:

Общее
Уникальный идентификатор : 228504377601558877101358419751030928712 (0xABE857A29671CF0ABE00C173DF42B548)
Полное имя : Q:TorFBuntarka.2012.D.WEBDL.720p.mkv
Формат : Matroska
Версия формата : Version 2
Размер файла : 2,86 Гбайт
Продолжительность : 1 ч. 29 м.
Общий поток : 4564 Кбит/сек
Название фильма : J.C.@NGB
Дата кодирования : UTC 2013-07-12 19:59:50
Программа кодирования : mkvmerge v5.2.0 ('I can't explain') built on Dec 18 2011 18:12:03
Библиотека кодирования : libebml v1.2.3 + libmatroska v1.3.0
Видео
Идентификатор : 1
Формат : AVC
Формат/Информация : Advanced Video Codec
Профиль формата : High@L3.1
Параметр CABAC формата : Нет
Параметр ReFrames формата : 2 кадра
Режим смешивания : Header stripping
Идентификатор кодека : V_MPEG4/ISO/AVC
Продолжительность : 1 ч. 29 м.
Битрейт : 3897 Кбит/сек
Ширина : 1280 пикселей
Высота : 718 пикселей
Соотношение сторон : 16:9
Частота кадров : 23,976 кадра/сек
Цветовое пространство : YUV
Субдискретизация насыщенности : 4:2:0
Битовая глубина : 8 бит
Тип развёртки : Прогрессивная
Бит/(Пиксели*Кадры) : 0.177
Размер потока : 2,44 Гбайт (85%)
Язык : English
Default : Да
Forced : Нет
Основные цвета : BT.709-5, BT.1361, IEC 61966-2-4, SMPTE RP177
Характеристики трансфера : BT.709-5, BT.1361
Коэффициенты матрицы : BT.709-5, BT.1361, IEC 61966-2-4 709, SMPTE RP177
Аудио #1
Идентификатор : 2
Формат : AC-3
Формат/Информация : Audio Coding 3
Расширение режима : CM (complete main)
Режим смешивания : Header stripping
Идентификатор кодека : A_AC3
Продолжительность : 1 ч. 29 м.
Вид битрейта : Постоянный
Битрейт : 192 Кбит/сек
Каналы : 2 канала
Расположение каналов : Front: L R
Частота : 48,0 КГц
Битовая глубина : 16 бит
Метод сжатия : С потерями
Размер потока : 123 Мбайт (4%)
Язык : Russian
Default : Да
Forced : Да
Аудио #2
Идентификатор : 3
Формат : AC-3
Формат/Информация : Audio Coding 3
Расширение режима : CM (complete main)
Режим смешивания : Header stripping
Идентификатор кодека : A_AC3
Продолжительность : 1 ч. 29 м.
Вид битрейта : Постоянный
Битрейт : 384 Кбит/сек
Каналы : 6 каналов
Расположение каналов : Front: L C R, Side: L R, LFE
Частота : 48,0 КГц
Битовая глубина : 16 бит
Метод сжатия : С потерями
Размер потока : 246 Мбайт (8%)
Язык : English
Default : Нет
Forced : Нет
Меню
00:00:00.000 : en:Opening
00:02:35.000 : en:One Of Us
00:09:55.000 : en:You're Hired!
00:17:47.000 : en:SLAM-FM
00:25:18.000 : en:8am
00:35:06.000 : en:Lunchtime Is Our Time
00:46:12.000 : en:Do Your Own Thing
00:58:18.000 : en:Here and There
01:10:35.000 : en:Blackmail
01:17:03.000 : en:Prom
01:22:40.000 : en:"I'm Radio Rebel"
01:28:38.000 : en:Credits

Скриншоты

[Профиль] [ЛС]
Показать сообщения:    

Текущее время: Сегодня 06:25

Часовой пояс: GMT



Вы не можете начинать темы
Вы не можете отвечать на сообщения
Вы не можете редактировать свои сообщения
Вы не можете удалять свои сообщения
Вы не можете голосовать в опросах
Вы не можете прикреплять файлы к сообщениям
Вы не можете скачивать файлы