Бунраку / Bunraku (Гай Моше / Guy Moshe) [2010, США, боевик, триллер, драма, BDRip] MVO (R5)

 
Автор Сообщение

TorrentFilm ®

Пол:

Стаж: 2 года

Сообщений: 7741



Награды: Нет

Торрент-статистика

Создавать темы 17-Июн-2015 17:24

[Цитировать]

Бунраку / Bunraku
Страна: США
Жанр: боевик, триллер, драма
Год выпуска: 2010
Продолжительность: 02:04:25
Перевод: Профессиональный (многоголосый закадровый) R5
Cубтитры: нет
Оригинальная аудиодорожка: нет--Режиссер: Гай Моше / Guy Moshe--В ролях: Джош Хартнетт, Вуди Харрельсон, Рон Перлман, Деми Мур, Гакт Камуи, Кевин МакКидд, Сюн Сугата, Эмили Кайхо, Хорди Молья, Майк Паттон...--Описание: Таинственный скиталец и молодой японский воин прибывают в терроризируемый преступниками город. У каждого своя миссия, но вскоре они объединяют силы, чтобы свергнуть коррумпированное господство.--Доп. информация: Kinopoisk | IMDB | Sample--Качество видео: BDRip Источник: Bunraku Blu-ray 1080p AVC DTS-HD MA 5.1-HDCLUB
Формат видео: AVI
Видео: XviD, 720x304 (2.37:1), 23.976 fps, 2055 kbps avg, 0.39 bit/pixel
Аудио: AC3 Dolby Digital, 48 kHz, 3/2 (L,C,R,l,r) + LFE ch, ~448 kbps avg

MediaInfo

General
Complete name : Bunraku (2010).avi
Format : AVI
Format/Info : Audio Video Interleave
Format profile : OpenDML
File size : 2.18 GiB
Duration : 2h 4mn
Overall bit rate : 2 511 Kbps
Movie name : Бунраку / Bunraku (2010) BDRip
Genre : боевик, триллер, драма
Writing application : VirtualDubMod 1.5.10.2 (build 2540/release)
Comment : 07.06.2012
Video
ID : 0
Format : MPEG-4 Visual
Format profile : Advanced Simple@L5
Format settings, BVOP : 1
Format settings, QPel : No
Format settings, GMC : No warppoints
Format settings, Matrix : Custom
Codec ID : XVID
Codec ID/Hint : XviD
Duration : 2h 4mn
Bit rate : 2 051 Kbps
Width : 720 pixels
Height : 304 pixels
Display aspect ratio : 2.35:1
Frame rate : 23.976 fps
Color space : YUV
Chroma subsampling : 4:2:0
Bit depth : 8 bits
Scan type : Progressive
Compression mode : Lossy
Bits/(Pixel*Frame) : 0.391
Stream size : 1.78 GiB (82%)
Writing library : XviD 72
Audio
ID : 1
Format : AC-3
Format/Info : Audio Coding 3
Mode extension : CM (complete main)
Format settings, Endianness : Big
Codec ID : 2000
Duration : 2h 4mn
Bit rate mode : Constant
Bit rate : 448 Kbps
Channel(s) : 6 channels
Channel positions : Front: L C R, Side: L R, LFE
Sampling rate : 48.0 KHz
Bit depth : 16 bits
Compression mode : Lossy
Stream size : 399 MiB (18%)
Alignment : Split accross interleaves
Interleave, duration : 42 ms (1.00 video frame)
Interleave, preload duratio : 500 ms

Скриншоты

[Профиль] [ЛС]

Создавать темы 06-Авг-2015 22:29 (спустя 1 месяц 19 дней)

Топик был перенесен из форума Фильмы до 2014 года в форум Фильмы до 2012 года
sergej644
 

Создавать темы 12-Июн-2016 07:55 (спустя 11 месяцев 24 дня)

Топик был перенесен из форума Фильмы 2011 года в форум Фильмы 2010 года
Russian Mafia
 
Показать сообщения:    

Текущее время: Сегодня 05:17

Часовой пояс: GMT



Вы не можете начинать темы
Вы не можете отвечать на сообщения
Вы не можете редактировать свои сообщения
Вы не можете удалять свои сообщения
Вы не можете голосовать в опросах
Вы не можете прикреплять файлы к сообщениям
Вы не можете скачивать файлы