Бумер: Фильм второй (2006) BDRip 1080p

 
Автор Сообщение

sergej644 ®

Пол:

Стаж: 4 года 11 месяцев

Сообщений: 6046

Откуда: Soviet Union



Награды: Нет

Торрент-статистика

Создавать темы 27-Янв-2015 04:57

[Цитировать]

Информация о фильме
Название: Бумер: Фильм второй
Год выхода: 2006
Жанр: Драма, криминал
Режиссер: Петр Буслов
В ролях: Владимир Вдовиченков, Андрей Мерзликин, Светлана Устинова, Николай Олялин, Александр Цуркан, Феликс Антипов, Юрий Колокольников, Анна Чурина, Александр Голубев, Константин Стрельников, Анатолий Кощеев, Денис Кириллов, Владимир Жеребцов, Олег Протасов, Игорь Арташонов, Дмитрий Персин, Любовь Омельченко, Вячеслав Кулаков, Альбина Тихонова, Олег Васильков, Сергей Лобынцев
О фильме:
Константин Огородников (Кот) выходит из колонии, не отсидев положенный срок. После всех событий: гибели друзей, тюрьмы… Кот стал другим человеком. Он хочет начать жизнь с чистого листа.Но прежде в память о погибшем товарище, в гибели которого невольно виноват Кот, он должен отыскать одного человека… Но встреча с семнадцатилетней Дашкой переворачивает его планы… Снова Кот пройдет через множество испытаний, в которых, кажется, невозможно выжить.

Страна: Россия
Выпущено: Кинокомпания CTB, Пигмалион Продакшн
Продолжительность: 01:55:20
Перевод: Оригинал
Файл
Кодек: x264
Формат: MKV
Качество: BDRip 1080p
Видео: AVC (High@L4.1) 1920x1080 (16:9), 23.976 fps, 8992 kbps, 0,181 Bits/Pixel
Аудио: DD (AC-3) 5.1 ch, 640 kbps
Размер: (1/3 BD-R)
The encoding settings: Hi-Fi

MI

General
Unique ID : 177076927916472687223999859572090524401 (0x8537C69A662C343A8A46E7CFB336D2F1)
Format : Matroska
Format version : Version 2
File size : 7.75 GiB
Duration : 1h 55mn
Overall bit rate : 9 623 Kbps
Movie name : Бумер: Фильм второй (2006) BDRip (1080p)
Encoded date : UTC 2012-11-28 11:59:52
Writing application : mkvmerge v5.8.0 ('No Sleep / Pillow') built on Sep 2 2012 15:37:04
Writing library : libebml v1.2.3 + libmatroska v1.3.0
Video
ID : 1
Format : AVC
Format/Info : Advanced Video Codec
Format profile : High@L4.1
Format settings, CABAC : Yes
Format settings, ReFrames : 4 frames
Codec ID : V_MPEG4/ISO/AVC
Duration : 1h 55mn
Bit rate : 8 992 Kbps
Width : 1 920 pixels
Height : 1 080 pixels
Display aspect ratio : 16:9
Frame rate mode : Constant
Frame rate : 23.976 fps
Color space : YUV
Chroma subsampling : 4:2:0
Bit depth : 8 bits
Scan type : Progressive
Bits/(Pixel*Frame) : 0.181
Stream size : 7.08 GiB (91%)
Title : Release by Alex260680
Writing library : x264 core 129 r2230 1cffe9f
Encoding settings : cabac=1 / ref=4 / deblock=1:0:0 / analyse=0x3:0x113 / me=umh / subme=10 / psy=1 / psy_rd=1.00:0.10 / mixed_ref=1 / me_range=32 / chroma_me=1 / trellis=2 / 8x8dct=1 / cqm=0 / deadzone=21,11 / fast_pskip=0 / chroma_qp_offset=-3 / threads=12 / lookahead_threads=2 / sliced_threads=0 / nr=0 / decimate=0 / interlaced=0 / bluray_compat=0 / constrained_intra=0 / bframes=5 / b_pyramid=2 / b_adapt=2 / b_bias=0 / direct=3 / weightb=1 / open_gop=0 / weightp=2 / keyint=240 / keyint_min=23 / scenecut=40 / intra_refresh=0 / rc=2pass / mbtree=0 / bitrate=8992 / ratetol=1.0 / qcomp=0.60 / qpmin=0 / qpmax=69 / qpstep=4 / cplxblur=20.0 / qblur=0.5 / ip_ratio=1.40 / pb_ratio=1.30 / aq=1:0.70
Language : Russian
Default : Yes
Forced : No
Audio
ID : 2
Format : AC-3
Format/Info : Audio Coding 3
Mode extension : CM (complete main)
Format settings, Endianness : Big
Codec ID : A_AC3
Duration : 1h 55mn
Bit rate mode : Constant
Bit rate : 640 Kbps
Channel(s) : 6 channels
Channel positions : Front: L C R, Side: L R, LFE
Sampling rate : 48.0 KHz
Bit depth : 16 bits
Compression mode : Lossy
Stream size : 528 MiB (7%)
Title : Original
Language : Russian
Default : Yes
Forced : No
Menu
00:00:00.000 : en:Chapter1
00:09:12.552 : en:Chapter2
00:20:43.742 : en:Chapter3
00:29:43.615 : en:Chapter4
00:40:46.318 : en:Chapter5
00:49:34.137 : en:Chapter6
01:00:34.714 : en:Chapter7
01:10:04.575 : en:Chapter8
01:19:22.758 : en:Chapter9
01:29:39.248 : en:Chapter10
01:40:04.915 : en:Chapter11
01:48:53.735 : en:Chapter12

Скриншоты

--
[Профиль] [ЛС]
Показать сообщения:    

Текущее время: Сегодня 17:34

Часовой пояс: GMT



Вы не можете начинать темы
Вы не можете отвечать на сообщения
Вы не можете редактировать свои сообщения
Вы не можете удалять свои сообщения
Вы не можете голосовать в опросах
Вы не можете прикреплять файлы к сообщениям
Вы не можете скачивать файлы