Бумажный человек / Paper Man (2009) BDRip 720p от ivandubskoj | P2

 
Автор Сообщение

Russian Mafia ®

Пол:

Стаж: 1 год 8 месяцев

Сообщений: 4246



Награды: 10 (Подробнее)

Mega Seeder 5 (Количество: 1) Top Releaser 5 (Количество: 1) Top Releaser 4 (Количество: 1)
Торрент-статистика

Создавать темы 29-Апр-2016 13:58

[Цитировать]

Информация о фильме
Название: Бумажный человек
Оригинальное название: Paper Man
Год выхода: 2009
Жанр: Драма, комедия
Режиссеры: Киран Малруни, Мишель Малруни
В ролях: Лиза Кудроу, Джефф Дэниелс, Райан Рейнольдс, Эмма Стоун, Киран Калкин, Хантер Пэрриш, Эрик Джиллилэнд, Луис Розарио, Конрад Вульф, Арабелла Филд
О фильме: В центре фильма - история писателя, мечтающего стать популярным, однако его роман не пользуется успехом. Неожиданно он получает помощь в лице юной школьницы, которая становится его подругой и помогает ему решить все проблемы.

Выпущено: США, Artfire Films, Film 360, FilmColony, Fireman Capital Partners, Paper Man Productions
Продолжительность: 01:50:52
Перевод: Профессиональный двухголосый (NLS)
Оригинальная аудио-дорожка: Английская
Файл
Формат: MKV
Кодек: MPEG-4 AVC
Качество: BDRip (720p) [Исходник: Blu-ray Remux (1080p) от HDClub]
Видео: MPEG-4 AVC, 1280x696 (1.85:1), 5016 Кбит/с, 23.976 кадр/с, 0.235 bit/pixel
Аудио #1: Русский, Dolby AC3, 48000 Гц, 192 Кбит/с, 2 канала (Стерео) - DVO [NLS]
Аудио #2: Английский, Dolby AC3, 48000 Гц, 448 Кбит/с, 6 каналов (5.1) - Оригинал
Субтитры: Русские, английские (полные, SDH) SRT
Навигация по главам: Есть (С названием всех глав)

MediaInfo

General
Unique ID : 175194632601195837588479119248652813011 (0x83CD42476B13CE20A61634D0B2D0C2D3)
Complete name : Paper.Man.2009.BDRip.720p.mkv
Format : Matroska
Format version : Version 4 / Version 2
File size : 4.37 GiB
Duration : 1h 50mn
Overall bit rate : 5 646 Kbps
Movie name : Бумажный человек / Paper Man (2009) BDRip (720p) от ivandubskoj
Encoded date : UTC 2016-04-29 12:40:30
Writing application : mkvmerge v7.8.0 ('River Man') 64bit built on Mar 27 2015 16:31:37
Writing library : libebml v1.3.1 + libmatroska v1.4.2
Video
ID : 1
Format : AVC
Format/Info : Advanced Video Codec
Format profile : High@L4.1
Format settings, CABAC : Yes
Format settings, ReFrames : 9 frames
Codec ID : V_MPEG4/ISO/AVC
Duration : 1h 50mn
Bit rate : 5 016 Kbps
Width : 1 280 pixels
Height : 696 pixels
Display aspect ratio : 1.85:1
Frame rate mode : Constant
Frame rate : 23.976 fps
Color space : YUV
Chroma subsampling : 4:2:0
Bit depth : 8 bits
Scan type : Progressive
Bits/(Pixel*Frame) : 0.235
Stream size : 3.79 GiB (87%)
Title : Бумажный человек / Paper Man (2009)
Writing library : x264 core 146 r2538 121396c
Encoding settings : cabac=1 / ref=9 / deblock=1:-3:-3 / analyse=0x3:0x113 / me=umh / subme=11 / psy=1 / psy_rd=1.00:0.00 / mixed_ref=1 / me_range=32 / chroma_me=1 / trellis=2 / 8x8dct=1 / cqm=0 / deadzone=21,11 / fast_pskip=0 / chroma_qp_offset=-2 / threads=6 / lookahead_threads=1 / sliced_threads=0 / nr=0 / decimate=0 / interlaced=0 / bluray_compat=0 / constrained_intra=0 / bframes=7 / b_pyramid=2 / b_adapt=2 / b_bias=0 / direct=3 / weightb=1 / open_gop=0 / weightp=2 / keyint=240 / keyint_min=23 / scenecut=40 / intra_refresh=0 / rc_lookahead=40 / rc=2pass / mbtree=0 / bitrate=5016 / ratetol=1.0 / qcomp=0.60 / qpmin=0 / qpmax=69 / qpstep=4 / cplxblur=20.0 / qblur=0.5 / vbv_maxrate=50000 / vbv_bufsize=62500 / nal_hrd=none / filler=0 / ip_ratio=1.40 / pb_ratio=1.30 / aq=1:1.00
Language : English
Default : Yes
Forced : No
Audio #1
ID : 2
Format : AC-3
Format/Info : Audio Coding 3
Mode extension : CM (complete main)
Format settings, Endianness : Big
Codec ID : A_AC3
Duration : 1h 50mn
Bit rate mode : Constant
Bit rate : 192 Kbps
Channel(s) : 2 channels
Channel positions : Front: L R
Sampling rate : 48.0 KHz
Bit depth : 16 bits
Compression mode : Lossy
Stream size : 152 MiB (3%)
Title : DVO [NLS]
Language : Russian
Default : Yes
Forced : No
Audio #2
ID : 3
Format : AC-3
Format/Info : Audio Coding 3
Mode extension : CM (complete main)
Format settings, Endianness : Big
Codec ID : A_AC3
Duration : 1h 50mn
Bit rate mode : Constant
Bit rate : 448 Kbps
Channel(s) : 6 channels
Channel positions : Front: L C R, Side: L R, LFE
Sampling rate : 48.0 KHz
Bit depth : 16 bits
Compression mode : Lossy
Stream size : 355 MiB (8%)
Title : Original
Language : English
Default : No
Forced : No
Text #1
ID : 4
Format : UTF-8
Codec ID : S_TEXT/UTF8
Codec ID/Info : UTF-8 Plain Text
Title : Full
Language : Russian
Default : No
Forced : No
Text #2
ID : 5
Format : UTF-8
Codec ID : S_TEXT/UTF8
Codec ID/Info : UTF-8 Plain Text
Title : Full [SDH]
Language : English
Default : No
Forced : No
Menu
00:00:00.000 : en:Opening Credits
00:02:34.904 : en:The Collage
00:07:00.002 : en:No Pressure
00:09:50.214 : en:Babysitter Wanted
00:13:35.231 : en:Go It Alone
00:17:55.908 : en:Bolstered
00:22:28.764 : en:Soap
00:28:15.694 : en:Separateness
00:33:39.434 : en:New Ingredients
00:39:12.141 : en:Leaded
00:46:22.070 : en:Winds of Chnage
00:54:40.402 : en:The Sea
01:01:19.092 : en:Paper Man
01:05:49.070 : en:Unbearable
01:12:55.829 : en:The Party
01:18:38.422 : en:Heart to Heart
01:24:57.300 : en:The Morning After
01:30:34.929 : en:It's Time, Captain
01:34:55.147 : en:The Swan
01:41:23.744 : en:Moving On
01:45:51.803 : en:End Credits

Скриншоты



Автор рипа - ivandubskoj
[Профиль] [ЛС]
Показать сообщения:    

Текущее время: Сегодня 18:19

Часовой пояс: GMT



Вы не можете начинать темы
Вы не можете отвечать на сообщения
Вы не можете редактировать свои сообщения
Вы не можете удалять свои сообщения
Вы не можете голосовать в опросах
Вы не можете прикреплять файлы к сообщениям
Вы не можете скачивать файлы