Бумажные города / Paper Towns (Джейк Шрейер / Jake Schreier) [2015, США, мелодрама, детектив, комедия, BDRip-AVC] Dub + Sub (Rus, Eng, Ukr)

 
Автор Сообщение

TorrentFilm ®

Пол:

Стаж: 2 года

Сообщений: 7741



Награды: Нет

Торрент-статистика

Создавать темы 10-Ноя-2015 00:08

[Цитировать]

Бумажные города
Paper Towns
«Найди меня»

Страна: США
Жанр: мелодрама, детектив, комедия
Год выпуска: 2015
Продолжительность: 01:49:05
Перевод: Профессиональный (полное дублирование) [Лицензия BD EUR]
Субтитры: русские (Forced, Full), украинские (Full), английские
Оригинальная аудиодорожка: нет
Режиссер: Джейк Шрейер / Jake Schreier
В ролях: Нат Вулф, Кара Делевинь, Остин Абрамс, Джастис Смит, Холстон Сейдж, Жасмин Сабино, Кара Буоно, Джозиа Серио, Ханна Аллигуд, Мэг Кросби, Гриффин Фриман, Кэйтлин Карвер
Описание:
Выпускник школы Кью Джейкобсен с детских лет тайно влюблен в свою прекрасную и дерзкую соседку Марго Рот Шпигельманн. Поэтому, когда однажды ночью она приглашает его принять участие в «карательной операции» против ее обидчиков, он соглашается. Но, придя в школу после их ночного приключения, Кью узнает, что Марго исчезла... оставив для него лишь таинственные послания, которые он должен разгадать, чтобы найти девушку. Релиз:
Автор рипа: Stalker oK
Сэмпл
Качество видео: BDRip-AVC [Blu-ray 1080p HDCLUB]
Формат видео: MKV
Видео кодек: AVC
Аудио кодек: AC3
Видео: 1470 Кбит/сек, 1056x440 (2.40:1), 23,976 кадр/сек, AVC
Аудио: русский, 448 Кбит/сек, 48 КГц, 16 бит, 5.1, AC3
Навигация по главам: есть

MediaInfo

General
Unique ID : 190432777914347958561388088052886406103 (0x8F4404D91BB5063AB094D879DDC203D7)
Complete name : M:\Rips\Paper Tows\Paper.Towns.2015.BDRip-AVC.Dub.1.45Gb...stalkerok.new-team.mkv
Format : Matroska
File size : 1.46 GiB
Duration : 1h 49mn
Overall bit rate : 1 920 Kbps
Movie name : Paper Towns (2015) (New-Team) (Rip by Stalker oK)
Encoded date : UTC 2015-11-08 20:54:16
Writing application : mkvmerge v7.9.0 ('Birds') 64bit
Writing library : libebml v1.3.1 + libmatroska v1.4.2
Video
ID : 1
Format : AVC
Format/Info : Advanced Video Codec
Format profile : High@L4.1
Format settings, CABAC : Yes
Format settings, ReFrames : 12 frames
Codec ID : V_MPEG4/ISO/AVC
Duration : 1h 49mn
Bit rate : 1 470 Kbps
Width : 1 056 pixels
Height : 440 pixels
Display aspect ratio : 2.40:1
Frame rate : 23.976 fps
Color space : YUV
Chroma subsampling : 4:2:0
Bit depth : 8 bits
Scan type : Progressive
Bits/(Pixel*Frame) : 0.132
Stream size : 1.09 GiB (75%)
Title : Paper Towns (2015) (New-Team) (Rip by Stalker oK)
Writing library : x264 core 146 r2538kMod 121396c
Encoding settings : cabac=1 / ref=12 / deblock=1:-3:-3 / analyse=0x3:0x133 / me=umh / subme=11 / psy=1 / fade_compensate=0.00 / psy_rd=1.00:0.12 / mixed_ref=1 / me_range=48 / chroma_me=1 / trellis=2 / 8x8dct=1 / cqm=0 / deadzone=21,11 / fast_pskip=0 / chroma_qp_offset=-3 / threads=12 / lookahead_threads=3 / sliced_threads=0 / nr=0 / decimate=0 / interlaced=0 / bluray_compat=0 / constrained_intra=0 / fgo=0 / bframes=14 / b_pyramid=2 / b_adapt=2 / b_bias=0 / direct=3 / weightb=1 / open_gop=0 / weightp=2 / keyint=240 / keyint_min=23 / scenecut=40 / intra_refresh=0 / rc_lookahead=60 / rc=2pass / mbtree=0 / bitrate=1470 / ratetol=1.0 / qcomp=0.70 / qpmin=0 / qpmax=69 / qpstep=4 / cplxblur=20.0 / qblur=0.5 / vbv_maxrate=50000 / vbv_bufsize=62500 / nal_hrd=none / filler=0 / ip_ratio=1.40 / pb_ratio=1.30 / aq=3:0.85
Audio
ID : 2
Format : AC-3
Format/Info : Audio Coding 3
Mode extension : CM (complete main)
Codec ID : A_AC3
Duration : 1h 49mn
Bit rate mode : Constant
Bit rate : 448 Kbps
Channel(s) : 6 channels
Channel positions : Front: L C R, Side: L R, LFE
Sampling rate : 48.0 KHz
Bit depth : 16 bits
Compression mode : Lossy
Stream size : 350 MiB (23%)
Language : Russian
Text #1
ID : 3
Format : UTF-8
Codec ID : S_TEXT/UTF8
Codec ID/Info : UTF-8 Plain Text
Title : Forced
Language : Russian
Text #2
ID : 4
Format : UTF-8
Codec ID : S_TEXT/UTF8
Codec ID/Info : UTF-8 Plain Text
Title : Full
Language : Russian
Text #3
ID : 5
Format : UTF-8
Codec ID : S_TEXT/UTF8
Codec ID/Info : UTF-8 Plain Text
Title : Full
Language : Ukrainian
Text #4
ID : 6
Format : UTF-8
Codec ID : S_TEXT/UTF8
Codec ID/Info : UTF-8 Plain Text
Language : English
Menu
00:00:00.000 : en:Chapter 1
00:03:59.239 : en:Chapter 2
00:06:03.196 : en:Chapter 3
00:09:06.629 : en:Chapter 4
00:11:11.379 : en:Chapter 5
00:13:35.064 : en:Chapter 6
00:18:08.212 : en:Chapter 7
00:22:26.011 : en:Chapter 8
00:27:34.527 : en:Chapter 9
00:31:18.209 : en:Chapter 10
00:33:18.746 : en:Chapter 11
00:37:51.310 : en:Chapter 12
00:40:43.983 : en:Chapter 13
00:43:56.550 : en:Chapter 14
00:48:08.802 : en:Chapter 15
00:50:20.100 : en:Chapter 16
00:54:39.192 : en:Chapter 17
00:59:02.705 : en:Chapter 18
01:02:55.021 : en:Chapter 19
01:06:57.930 : en:Chapter 20
01:13:01.085 : en:Chapter 21
01:16:49.479 : en:Chapter 22
01:21:41.521 : en:Chapter 23
01:26:22.093 : en:Chapter 24
01:33:31.147 : en:Chapter 25
01:36:36.499 : en:Chapter 26
01:39:32.967 : en:Chapter 27
01:42:31.395 : en:Chapter 28

Скриншоты

[Профиль] [ЛС]
Показать сообщения:    

Текущее время: Сегодня 14:28

Часовой пояс: GMT



Вы не можете начинать темы
Вы не можете отвечать на сообщения
Вы не можете редактировать свои сообщения
Вы не можете удалять свои сообщения
Вы не можете голосовать в опросах
Вы не можете прикреплять файлы к сообщениям
Вы не можете скачивать файлы