Бульвар / Boulevard (2014) BDRip 720p | L

 
Автор Сообщение

достали все ®

Пол:

Стаж: 1 год 8 месяцев

Сообщений: 6620



Награды: 12 (Подробнее)

Mega Releaser 3 (Количество: 1) Mega Seeder 5 (Количество: 1) Mega Seeder 2 (Количество: 1)
Торрент-статистика

Создавать темы 28-Сен-2015 03:20

[Цитировать]

Информация о фильме
Название: Бульвар
Оригинальное название: Boulevard
Год выхода: 2014
Жанр: драма
Режиссер: Дито Монтиель
В ролях: Робин Уильямс, Кэти Бэйкер, Боб Оденкёрк, Роберто Агуайр, Элеонор Хендрикс, Джиллз Мэттхи, Дж. Карен Томас, Генри Хаггард, Лэндон Маршалл, Брэндон Хирш
О фильме: Это грустная история человека, чья жизнь давно превратилась в серую рутину, но которая неожиданно меняется после знакомства героя с одним молодым парнем.

Выпущено: США / Camellia Entertainment, Evil Media Empire
Продолжительность: 01:28:08
Озвучивание: Любительское (многоголосое) [GreenРай Studio - Райм, Баира и Badcatstudio]
Файл
Формат: MPEG-4 AVC
Качество: BDRip 720p
Видео: 4255 Кбит/с, 1280x536
Аудио: Русский (AC3, 6 ch, 448 Кбит/с), английский (AC3, 6 ch, 640 Кбит/с)
Семпл

Скриншоты

MediaInfo

File: D:ВидеоBoulevard.2014.MVO.BDRip.720p.GreenРай.Studio.mkv
General
Unique ID : 199735572304834325613768402811977235598 (0x9643AC05F8BE683BAE4987B3C1E47C8E)
Complete name : D:ВидеоBoulevard.2014.MVO.BDRip.720p.GreenРай.Studio.mkv
Format : Matroska
Format version : Version 4 / Version 2
File size : 3.36 GiB
Duration : 1h 28mn
Overall bit rate : 5 452 Kbps
Encoded date : UTC 2015-09-26 12:06:04
Writing application : mkvmerge v6.9.1 ('Blue Panther') 64bit built on Apr 18 2014 18:23:38
Writing library : libebml v1.3.0 + libmatroska v1.4.1
DURATION : 01:26:32.728000000
NUMBER_OF_FRAMES : 1305
NUMBER_OF_BYTES : 39981
_STATISTICS_WRITING_APP : mkvmerge v8.2.0 ('World of Adventure') 64bit
_STATISTICS_WRITING_DATE_UTC : 2015-08-25 14:25:22
_STATISTICS_TAGS : BPS DURATION NUMBER_OF_FRAMES NUMBER_OF_BYTES
Video
ID : 1
Format : AVC
Format/Info : Advanced Video Codec
Format profile : High@L4.1
Format settings, CABAC : Yes
Format settings, ReFrames : 12 frames
Codec ID : V_MPEG4/ISO/AVC
Duration : 1h 28mn
Bit rate : 4 255 Kbps
Width : 1 280 pixels
Height : 536 pixels
Display aspect ratio : 2.40:1
Frame rate mode : Constant
Frame rate : 23.976 fps
Color space : YUV
Chroma subsampling : 4:2:0
Bit depth : 8 bits
Scan type : Progressive
Bits/(Pixel*Frame) : 0.259
Stream size : 2.62 GiB (78%)
Title : ENCODE CRiME
Writing library : x264 core 148 r2597 e86f3a1
Encoding settings : cabac=1 / ref=12 / deblock=1:-3:-3 / analyse=0x3:0x133 / me=umh / subme=10 / psy=1 / psy_rd=1.00:0.00 / mixed_ref=1 / me_range=32 / chroma_me=1 / trellis=2 / 8x8dct=1 / cqm=0 / deadzone=21,11 / fast_pskip=0 / chroma_qp_offset=-2 / threads=6 / lookahead_threads=1 / sliced_threads=0 / nr=0 / decimate=0 / interlaced=0 / bluray_compat=0 / constrained_intra=0 / bframes=9 / b_pyramid=2 / b_adapt=2 / b_bias=0 / direct=3 / weightb=1 / open_gop=0 / weightp=2 / keyint=250 / keyint_min=24 / scenecut=40 / intra_refresh=0 / rc_lookahead=60 / rc=crf / mbtree=0 / crf=16.5 / qcomp=0.60 / qpmin=0 / qpmax=69 / qpstep=4 / vbv_maxrate=62500 / vbv_bufsize=78125 / crf_max=0.0 / nal_hrd=none / filler=0 / ip_ratio=1.33 / pb_ratio=1.22 / aq=3:0.68 / zones=468,799,crf=16.0/17283,19373,crf=16.0/32749,32761,crf=16.0/36583,39307,crf=16.0/49576,49768,crf=16.0/50389,50429,crf=16.0/50547,50582,crf=16.0/50699,50990,crf=16.0/108438,108691,crf=16.0/110296,112545,crf=16.0/115063,115322,crf=16.0/119450,119870,crf=16.0/120773,120990,crf=16.0/120991,126790,crf=18.5
Language : English
Default : Yes
Forced : No
DURATION : 01:28:08.200000000
NUMBER_OF_FRAMES : 126790
NUMBER_OF_BYTES : 2882994727
_STATISTICS_WRITING_APP : mkvmerge v8.2.0 ('World of Adventure') 64bit
_STATISTICS_WRITING_DATE_UTC : 2015-08-25 14:25:22
_STATISTICS_TAGS : BPS DURATION NUMBER_OF_FRAMES NUMBER_OF_BYTES
Audio #1
ID : 2
Format : AC-3
Format/Info : Audio Coding 3
Mode extension : CM (complete main)
Format settings, Endianness : Big
Codec ID : A_AC3
Duration : 1h 28mn
Bit rate mode : Constant
Bit rate : 448 Kbps
Channel(s) : 6 channels
Channel positions : Front: L C R, Side: L R, LFE
Sampling rate : 48.0 KHz
Bit depth : 16 bits
Compression mode : Lossy
Stream size : 282 MiB (8%)
Title : GreenРай Studio
Language : Russian
Default : Yes
Forced : No
Audio #2
ID : 3
Format : AC-3
Format/Info : Audio Coding 3
Mode extension : CM (complete main)
Format settings, Endianness : Big
Codec ID : A_AC3
Duration : 1h 28mn
Bit rate mode : Constant
Bit rate : 640 Kbps
Channel(s) : 6 channels
Channel positions : Front: L C R, Side: L R, LFE
Sampling rate : 48.0 KHz
Bit depth : 16 bits
Compression mode : Lossy
Stream size : 403 MiB (12%)
Title : AC3@640
Language : English
Default : No
Forced : No
Text
ID : 4
Format : UTF-8
Codec ID : S_TEXT/UTF8
Codec ID/Info : UTF-8 Plain Text
Title : SDH
Language : English
Default : No
Forced : No
Menu
00:00:00.000 : en:00:00:00.000
00:02:30.901 : en:00:02:30.901
00:10:27.377 : en:00:10:27.377
00:18:03.249 : en:00:18:03.249
00:27:19.471 : en:00:27:19.471
00:37:31.958 : en:00:37:31.958
00:45:33.856 : en:00:45:33.856
00:54:43.739 : en:00:54:43.739
01:00:07.187 : en:01:00:07.187
01:03:54.581 : en:01:03:54.581
01:16:00.347 : en:01:16:00.347
01:24:10.295 : en:01:24:10.295
Релиз от:
[Профиль] [ЛС]
Показать сообщения:    

Текущее время: Сегодня 08:19

Часовой пояс: GMT



Вы не можете начинать темы
Вы не можете отвечать на сообщения
Вы не можете редактировать свои сообщения
Вы не можете удалять свои сообщения
Вы не можете голосовать в опросах
Вы не можете прикреплять файлы к сообщениям
Вы не можете скачивать файлы