Будь здоров, зеленый лес! (Михаил Каменецкий) [1976 г., Кукольный мультфильм, SATRip]

 
Автор Сообщение

TorrentFilm ®

Пол:

Стаж: 2 года

Сообщений: 7741



Награды: Нет

Торрент-статистика

Создавать темы 25-Янв-2015 00:00

[Цитировать]

~ Будь здоров, зеленый лес! ~- Страна: СССР (Студия: Союзмультфильм)
Жанр: Кукольный мультфильм
Продолжительность: 00:09:41
Год выпуска: 1976-Режиссёр: Михаил Каменецкий
Композитор: Игорь Космачев
Описание: Современная приключенческая сказка для школьников о выборе своей профессии, после окончания школы. Ведь этот выбор на всю жизнь! В школьном классе уже все дети определились, кем они хотят стать космонавтами, киноактерами, портными, музыкантами, циркачами, капитанами и учеными. Только один мальчик не может сделать свой выбор. Через окно в класс, забегает белочка и просит помощи, на их лес напали вредители и губят все деревья. Еще немного и лес погибнет и исчезнет, нужно срочно принимать меры. В одиночку мальчику не удается справиться с голодными шелкопрядами, и он решает позвать на подмогу муравьев из соседнего леса.-Исходник для рипа - от ItarTass - Спасибо!
Релиз: анвад(+Постер)
Качество: SATRip
Формат: AVI
Видео: 704x528 (1.33:1), 25 fps, XviD build 65 ~2153 kbps avg, 0.23 bit/pixel
Аудио: 48 kHz, MPEG Layer 3, 2 ch, ~128.00 kbps avg-

Подробные технические данные

Общее
Complete name : J:\Будь здоров, зелёный лес!(SATRip).avi
Format : AVI
Format/Info : Audio Video Interleave
File size : 159 MiB
Duration : 9mn 41s
Overall bit rate : 2 291 Kbps
Writing application : VirtualDubMod 1.5.10.3 | www.virtualdub-fr.org || (build 2550/release)
Writing library : VirtualDubMod build 2550/release
Video
ID : 0
Format : MPEG-4 Visual
Format profile : Advanced Simple@L5
Format settings, BVOP : 2
Format settings, QPel : No
Format settings, GMC : No warppoints
Format settings, Matrix : Custom
Codec ID : XVID
Codec ID/Hint : XviD
Duration : 9mn 41s
Bit rate : 2 153 Kbps
Width : 704 pixels
Height : 528 pixels
Display aspect ratio : 4:3
Frame rate : 25.000 fps
Color space : YUV
Chroma subsampling : 4:2:0
Bit depth : 8 bits
Scan type : Progressive
Compression mode : Lossy
Bits/(Pixel*Frame) : 0.232
Stream size : 149 MiB (94%)
Writing library : XviD 65
Audio
ID : 1
Format : MPEG Audio
Format version : Version 1
Format profile : Layer 3
Codec ID : 55
Codec ID/Hint : MP3
Duration : 9mn 41s
Bit rate mode : Constant
Bit rate : 128 Kbps
Channel(s) : 2 channels
Sampling rate : 48.0 KHz
Compression mode : Lossy
Stream size : 8.88 MiB (6%)
Alignment : Aligned on interleaves
Interleave, duration : 40 ms (1.00 video frame)
Interleave, preload duration : 504 ms

Скриншоты

На замену, а то как то.. http://torrentfilm.net/forum/viewtopic.php?t=2166985 :
Сравнениеhttp://torrentfilm.net/forum/viewtopic.php?t=2166985 http://screenshotcomparison.com/comparison/58771/picture:1 (лучшее видео, да и картинка не кастрирована...)
Кинозал(ItarTass) http://screenshotcomparison.com/comparison/58777/picture:1
[Профиль] [ЛС]
Кто просматривает тему:

Показать сообщения:    

Текущее время: Сегодня 08:01

Часовой пояс: GMT



Вы не можете начинать темы
Вы не можете отвечать на сообщения
Вы не можете редактировать свои сообщения
Вы не можете удалять свои сообщения
Вы не можете голосовать в опросах
Вы не можете прикреплять файлы к сообщениям
Вы не можете скачивать файлы