Будущее с Джеймсом Вудсом (сезон 1: серии 1-6 из 6) / Futurescape with James Woods (Эмре Сахин / Emre Sahin) [2013, Научно-познавательный, HDTVRip]

 
Автор Сообщение

reversefile ®

Пол:

Стаж: 4 года 5 месяцев

Сообщений: 842

Откуда: ReverseFile.org



Награды: Нет

Торрент-статистика

Создавать темы 24-Июл-2014 17:55

[Цитировать]

Будущее с Джеймсом Вудсом / Futurescape with James Woods
Дата/Год выпуска: 2013
Страна: США
Жанр: Научно-познавательный
Продолжительность: 6x~00:43:00
Перевод: Студийный (одноголосый закадровый) Сергей Казаков
Русские субтитры: нет
Режиссер: Эмре Сахин / Emre Sahin
Телеканал: Discovery
Описание: Актёр Джеймс Вудс изучает последние технологические прорывы и их возможные последствия для будущего человечества. Каждая передача посвящена одной потрясающей идее или открытию, способному кардинально изменить привычную нам жизнь. Что происходит в ключевых областях науки? Чем это обернется для нас? Джеймс задаст важные вопросы, начнет дискуссию и при помощи уникальных технологий съемки и компьютерного моделирования покажет потрясающие картины нашего будущего.

Автор рипа: skorpionN
качество: HDTVRip
формат: AVI
Видео: Xvid 720x400 25fps 1799kbps
Аудио: Dolby AC3 48000Hz stereo 192kbps
Дополнительная информация: Вторая серия имеет другие тех.характеристики, выкладываю то что нашёл. Риперу, остальных серий, пока так и не удалось записать повтор в HDTVRip
SATRip Video: Xvid, 720x400, 25fps, 1100 Kbps Audio: MP3, 48000Hz stereo, 124kbps

Список выпусков/серий

01. Я знаю, что вы думаете / I Know What You're Thinking - Представьте себе мир, где ваши самые интимные воспоминания является общественным достоянием. При преобразование данных нервной системы и её декодировании, ученые в специальных шлемах телепатически читают чужие мысли и скрытые воспоминания людей. Таким образом, это может положить конец на неприкосновенность частной жизни навсегда.
02. Революция роботов / Robot Revolution - Передовые эксперименты превращают машины в существ с сознанием, в это же время, в другом месте, ученые укрепляют человеческое тело при помощи синтетический частей, которые работают лучше, чем реальные фрагменты. Результат - не слишком далек тот мир, где человек и машина не только равны, но неразличимы.
03. Время лжи / Cheating Time - На протяжении всей истории, сильные мира сего, строили и рушили целые империи, они легко управляли судьбами миллионов, но есть кое-что, что им не подвластно - это старость и смерть. При том что меняется в последствиях трудно предположить. Достижения в области медицинских технологий в настоящее время заставляют нас задуматься о мире, где старость является не более чем управляемым хроническим заболеванием, а не заболеть является делом прошлого.
04. Замена Богу / Replacing God - Может ли долгое воцарение Божье наконец оказаться под угрозой ? Умопомрачительные возможности обеспечивающие людей мощью, которая подвластна только для Всевышнего - способность создавать жизнь с чистого листа. Но, как мы будем манипулировать строительными блоками ДНК и производить новые виды для нашей прихоти, не найдем ли мы Божью обувь слишком большой что бы занять её ?
05. Пионеры галактики / Galactic Pioneers - Исследователи 21-го века пускаются в плавание по новой эпохе открытий, которое затмевает все мечтания Христофора Колумба. Их "новые земли" на самом деле просто - новые миры. Последние достижения в области ракетных двигателей, искривлении пространства и времени а также солнечной энергии, позволят нам сделать то, о чём только писатели-фантасты не мечтали до сих пор.
06. Как стать суперчеловеком? / How to Be a Superhuman - Наука стоит на грани разблокировки наших первобытных инстинктов. Достижения в области генной инженерии и неврологии, предполагают появлению людей освобождённых от физических ограничений, которые связывают их с остальной частью животного мира. Боль, страх, неуверенность и слабость могут быть чувствами из прошлого - но этот ли мир без опасений или стоит что-то воспринимать и бояться ?

MediaInfo

GeneralComplete name : E:\Films\Dokumentary\Futurescape with James Woods\01_I Know What You're Thinking.aviFormat : AVIFormat/Info : Audio Video InterleaveFile size : 629 MiBDuration : 43mn 56sOverall bit rate : 2 002 KbpsWriting application : VirtualDubMod 1.5.10.3 | www.virtualdub-fr.org || (build 2550/release)Writing library : VirtualDubMod build 2550/release
VideoID : 0Format : MPEG-4 VisualFormat profile : Advanced Simple@L5Format settings, BVOP : 2Format settings, QPel : NoFormat settings, GMC : No warppointsFormat settings, Matrix : Default (H.263)Codec ID : XVIDCodec ID/Hint : XviDDuration : 43mn 56sBit rate : 1 800 KbpsWidth : 720 pixelsHeight : 400 pixelsDisplay aspect ratio : 16:9Frame rate : 25.000 fpsColor space : YUVChroma subsampling : 4:2:0Bit depth : 8 bitsScan type : ProgressiveCompression mode : LossyBits/(Pixel*Frame) : 0.250Stream size : 566 MiB (90%)Writing library : XviD 1.2.1 (UTC 2008-12-04)
AudioID : 1Format : AC-3Format/Info : Audio Coding 3Mode extension : CM (complete main)Format settings, Endianness : BigCodec ID : 2000Duration : 43mn 56sBit rate mode : ConstantBit rate : 192 KbpsChannel(s) : 2 channelsChannel positions : Front: L RSampling rate : 48.0 KHzBit depth : 16 bitsCompression mode : LossyStream size : 60.3 MiB (10%)Alignment : Split accross interleavesInterleave, duration : 40 ms (1.00 video frame)Interleave, preload duration : 500 ms

Скриншоты


[Профиль] [ЛС]
Кто просматривает тему:

Форум Тема Автор Размер
BBC BBC: Еда будущего / Tomorrow's Food [серии 1-3 из 3] (Tom Watt-Smith, Penny Palmer, Eileen Inkson) [2015 г., Документальный, научно-познавательный, HDTVRip 720p] skorpionN 3.78 GB
История, биографии, религия и искусство Аксёнов Дмитрий - Предсказания будущего. Шокирующая правда от Лукьяненко, Леви, Капицы и других [Телегина Татьяна, 2015] Magnat 399 MB
Фильмы 2015 года Будущее совершенное (2015) SATRip достали все 1.27 GB
Фильмы (HD Rips | 720p, 1080p) Будущее совершенное (Алексей Карелин) [2015, Россия, мелодрама, HDTV 1080i] + Original Rus TorrentFilm 5.4 GB
Фантастика, фэнтези Владимир Поселягин - Мальчик из будущего (2016) FB2 достали все 1 MB
Фильмы (HD Rips | 720p, 1080p) Воспоминания о будущем / Testament of Youth (2014) BDRip 1080p | iTunes достали все 13.34 GB
Фильмы (HD Rips | 720p, 1080p) Воспоминания о будущем / Testament of Youth (2014) BDRip 720p | iTunes достали все 6.79 GB
Фильмы 2014 года Воспоминания о будущем / Testament of Youth (2014) HDRip | iTunes достали все 2.03 GB
Показать сообщения:    

Текущее время: Сегодня 06:07

Часовой пояс: GMT



Вы не можете начинать темы
Вы не можете отвечать на сообщения
Вы не можете редактировать свои сообщения
Вы не можете удалять свои сообщения
Вы не можете голосовать в опросах
Вы не можете прикреплять файлы к сообщениям
Вы не можете скачивать файлы