Будущее совершенное (Алексей Карелин) [2015, Россия, мелодрама, HDTV 1080i] + Original Rus

 
Автор Сообщение

TorrentFilm ®

Пол:

Стаж: 2 года

Сообщений: 7741



Награды: Нет

Торрент-статистика

Создавать темы 09-Дек-2015 00:10

[Цитировать]

Будущее совершенное
Страна: Россия
Студия: кинокомпания "Русское"
Жанр: мелодрама
Год выпуска: 2015
Продолжительность: 01:31:11
Перевод: Не требуется
Cубтитры: нет
Оригинальная аудиодорожка: русский
Режиссер: Алексей Карелин
В ролях: Юлия Жигалина, Святослав Астрамович, Василий Бойдак, Павел Адамчиков, Анатолий Голуб, Анна Полупанова, Ульяна Ярмоленко
Описание: У Ольги было всё — муж, карьера, хорошая работа и радужные перспективы. Но в одночасье всё рухнуло. Несчастье с сыном. А дальше, как снежный ком. Казалось, удача оставила её наедине с горькой судьбой. Но Ольга не опускает руки. Она любит и ждёт. И счастье приходит к ней.
Кинопоиск
Sample
Тип релиза: HDTV 1080i
Контейнер: TS
Видео: MPEG4 AVC Video, H264, 16:9, 1920x1080, 25 fps, 7866 kbps
Аудио: Russian (MP2, 2 ch, 192 kbps, 16 bits, 48.0 KHz) - оригинал

MediaInfo

General
ID : 1 (0x1)
Complete name : K:\Будущее совершенное 2015 HDTV 1080i.ts
Format : MPEG-TS
File size : 5.40 GiB
Duration : 1h 31mn
Overall bit rate mode : Variable
Overall bit rate : 8 479 Kbps
Video
ID : 2911 (0xB5F)
Menu ID : 1009 (0x3F1)
Format : AVC
Format/Info : Advanced Video Codec
Format profile : High@L4.0
Format settings, CABAC : Yes
Format settings, ReFrames : 4 frames
Codec ID : 27
Duration : 1h 31mn
Bit rate : 7 866 Kbps
Width : 1 920 pixels
Height : 1 080 pixels
Display aspect ratio : 16:9
Frame rate : 25.000 fps
Color space : YUV
Chroma subsampling : 4:2:0
Bit depth : 8 bits
Scan type : MBAFF
Bits/(Pixel*Frame) : 0.152
Stream size : 5.01 GiB (93%)
Audio
ID : 2912 (0xB60)
Menu ID : 1009 (0x3F1)
Format : MPEG Audio
Format version : Version 1
Format profile : Layer 2
Codec ID : 3
Duration : 1h 31mn
Bit rate mode : Constant
Bit rate : 192 Kbps
Channel count : 2 channels
Sampling rate : 48.0 KHz
Compression mode : Lossy
Stream size : 125 MiB (2%)
Language : Russian

Скриншоты

[Профиль] [ЛС]
Кто просматривает тему:

Форум Тема Автор Размер
BBC BBC: Еда будущего / Tomorrow's Food [серии 1-3 из 3] (Tom Watt-Smith, Penny Palmer, Eileen Inkson) [2015 г., Документальный, научно-познавательный, HDTVRip 720p] skorpionN 3.78 GB
История, биографии, религия и искусство Аксёнов Дмитрий - Предсказания будущего. Шокирующая правда от Лукьяненко, Леви, Капицы и других [Телегина Татьяна, 2015] Magnat 399 MB
Мир будущего Будущее с Джеймсом Вудсом (сезон 1: серии 1-6 из 6) / Futurescape with James Woods (Эмре Сахин / Emre Sahin) [2013, Научно-познавательный, HDTVRip] reversefile 3.44 GB
Фильмы 2015 года Будущее совершенное (2015) SATRip достали все 1.27 GB
Фантастика, фэнтези Владимир Поселягин - Мальчик из будущего (2016) FB2 достали все 1 MB
Фильмы (HD Rips | 720p, 1080p) Воспоминания о будущем / Testament of Youth (2014) BDRip 1080p | iTunes достали все 13.34 GB
Фильмы (HD Rips | 720p, 1080p) Воспоминания о будущем / Testament of Youth (2014) BDRip 720p | iTunes достали все 6.79 GB
Фильмы 2014 года Воспоминания о будущем / Testament of Youth (2014) HDRip | iTunes достали все 2.03 GB
Показать сообщения:    

Текущее время: Сегодня 20:12

Часовой пояс: GMT



Вы не можете начинать темы
Вы не можете отвечать на сообщения
Вы не можете редактировать свои сообщения
Вы не можете удалять свои сообщения
Вы не можете голосовать в опросах
Вы не можете прикреплять файлы к сообщениям
Вы не можете скачивать файлы