Будущее совершенное (2015) SATRip

 
Автор Сообщение

достали все ®

Пол:

Стаж: 1 год 8 месяцев

Сообщений: 6554



Награды: 12 (Подробнее)

Mega Seeder 5 (Количество: 1) Mega Seeder 2 (Количество: 1) Mega Releaser 2 (Количество: 1)
Торрент-статистика

Создавать темы 18-Окт-2015 13:32

[Цитировать]

Информация о фильме
Название: Будущее совершенное
Год выхода: 2015
Жанр: Мелодрамма
Режиссер: Алексей Карелин
В ролях: Юлия Жигалина, Святослав Астрамович, Василий Бойдак, Павел Адамчиков, Анатолий Голуб, Анна Полупанова, Ульяна Ярмоленко
О фильме:
У Ольги было всё - муж, карьера, хорошая работа и радужные перспективы. Но в одночасье всё рухнуло. Несчастье с сыном. А дальше, как снежный ком. Казалось, удача оставила её наедине с горькой судьбой. Но Ольга не опускает руки. Она любит и ждёт. И счастье приходит к ней.
Страна: Россия
Студия: Паламеда продакшн
Продолжительность: 01:30:31
Перевод: Не требуется
Файл
Кодек: XviD
Качество: SATRip
Видео: 720x400 25.00fps 1800kbps
Звук: 48000Hz stereo 192kbps

Скриншоты

MediaInfo

Общее
Полное имя : D:Budushee.Sovershennoe.SATRip.avi
Формат : AVI
Формат/Информация : Audio Video Interleave
Размер файла : 1,27 Гбайт
Продолжительность : 1 ч. 30 м.
Общий поток : 2002 Кбит/сек
Программа кодирования : VirtualDubMod 1.5.10.3 | www.virtualdub-fr.org || (build 2550/release)
Библиотека кодирования : VirtualDubMod build 2550/release
Видео
Идентификатор : 0
Формат : MPEG-4 Visual
Профиль формата : Advanced Simple@L5
Параметр BVOP формата : 2
Параметр QPel формата : Нет
Параметр GMC формата : Без точки перехода
Параметр матрицы формата : Default (H.263)
Идентификатор кодека : XVID
Идентификатор кодека/Подсказка : XviD
Продолжительность : 1 ч. 30 м.
Битрейт : 1800 Кбит/сек
Ширина : 720 пикселей
Высота : 400 пикселей
Соотношение сторон : 16:9
Частота кадров : 25,000 кадров/сек
Цветовое пространство : YUV
Субдискретизация насыщенности : 4:2:0
Битовая глубина : 8 бит
Тип развёртки : Прогрессивная
Метод сжатия : С потерями
Бит/(Пиксели*Кадры) : 0.250
Размер потока : 1,14 Гбайт (90%)
Библиотека кодирования : XviD 1.2.1 (UTC 2008-12-04)
Аудио
Идентификатор : 1
Формат : AC-3
Формат/Информация : Audio Coding 3
Расширение режима : CM (complete main)
Параметр Endianness формата : Big
Идентификатор кодека : 2000
Продолжительность : 1 ч. 30 м.
Вид битрейта : Постоянный
Битрейт : 192 Кбит/сек
Каналы : 2 канала
Расположение каналов : Front: L R
Частота : 48,0 КГц
Метод сжатия : С потерями
Размер потока : 124 Мбайт (10%)
Выравнивание : Разделение по промежуткам
Продолжительность промежутка : 40 мс. (1,00 видеокадр)
Время предзагрузки промежутка : 500 мс.
Релиз от:
[Профиль] [ЛС]
Кто просматривает тему:

Форум Тема Автор Размер
BBC BBC: Еда будущего / Tomorrow's Food [серии 1-3 из 3] (Tom Watt-Smith, Penny Palmer, Eileen Inkson) [2015 г., Документальный, научно-познавательный, HDTVRip 720p] skorpionN 3.78 GB
История, биографии, религия и искусство Аксёнов Дмитрий - Предсказания будущего. Шокирующая правда от Лукьяненко, Леви, Капицы и других [Телегина Татьяна, 2015] Magnat 399 MB
Мир будущего Будущее с Джеймсом Вудсом (сезон 1: серии 1-6 из 6) / Futurescape with James Woods (Эмре Сахин / Emre Sahin) [2013, Научно-познавательный, HDTVRip] reversefile 3.44 GB
Фильмы (HD Rips | 720p, 1080p) Будущее совершенное (Алексей Карелин) [2015, Россия, мелодрама, HDTV 1080i] + Original Rus TorrentFilm 5.4 GB
Фантастика, фэнтези Владимир Поселягин - Мальчик из будущего (2016) FB2 достали все 1 MB
Фильмы (HD Rips | 720p, 1080p) Воспоминания о будущем / Testament of Youth (2014) BDRip 1080p | iTunes достали все 13.34 GB
Фильмы (HD Rips | 720p, 1080p) Воспоминания о будущем / Testament of Youth (2014) BDRip 720p | iTunes достали все 6.79 GB
Фильмы 2014 года Воспоминания о будущем / Testament of Youth (2014) HDRip | iTunes достали все 2.03 GB
Показать сообщения:    

Текущее время: Сегодня 21:02

Часовой пояс: GMT



Вы не можете начинать темы
Вы не можете отвечать на сообщения
Вы не можете редактировать свои сообщения
Вы не можете удалять свои сообщения
Вы не можете голосовать в опросах
Вы не можете прикреплять файлы к сообщениям
Вы не можете скачивать файлы