Буги изо всех сил / Full Tilt Boogie (Сара Келли / Sarah Kelly) [1997, США, документальный, BDRip 720p] DVO + Original (Eng)

 
Автор Сообщение

TorrentFilm ®

Пол:

Стаж: 2 года 3 месяца

Сообщений: 7773



Награды: Нет

Торрент-статистика

Создавать темы 14-Янв-2015 00:00

[Цитировать]

Буги изо всех сил / Full Tilt Boogie
Год выпуска: 1997
Страна: США
Жанр: документальный
Продолжительность: 01:40:30
Перевод: профессиональный двухголосный закадровый
Cубтитры: нет
Режиссер: Сара Келли /Sarah Kelly/
Описание:
Документальный фильм, рассказывающий о съёмках фильма «От заката до рассвета».
Дополнительная информация:
IMDB User Rating→: 6.5/10 (2,038 votes)
Рейтинг фильма КиноПоиск.Ru→: 7.607 (112 голосов)
Качество: BDRip (by MOOVEE)
Контейнер: MKV
Видеопоток: 1280x720p, 23.976 fps, H.264 ~5456 kbps
Аудиопоток №1 (RUS): DD 2.0, 48 kHz, 192 kbps | профессиональный двухголосный закадровый
Аудиопоток №2 (ENG): DD 2.0, 48 kHz, 192 kbps
Сэмпл: Яндекс.Диск→, multi-up→

MediaInfo

General
Unique ID                   : 184043906634309638064042165145796479043 (0x8A75912C9B747AF9A1041BE319DA0843)
Complete name               : Full.Tilt.Boogie.1997.720p.BDRip.x264.DD-MOOVEE.mkv
Format                      : Matroska
Format version              : Version 4 / Version 2
File size                   : 4.10 GiB
Duration                    : 1h 40mn
Overall bit rate            : 5 838 Kbps
Movie name                  : Full Tilt Boogie (1997) 720p BDRip by MOOVEE
Encoded date                : UTC 2015-01-12 21:02:47
Writing application         : mkvmerge v7.5.0 ('Glass Culture') 64bit built on Jan  4 2015 16:48:44
Writing library             : libebml v1.3.1 + libmatroska v1.4.2
DURATION                    : 01:40:30.016000000
NUMBER_OF_FRAMES            : 188438
NUMBER_OF_BYTES             : 144720384
_STATISTICS_WRITING_APP     : mkvmerge v7.5.0 ('Glass Culture') 64bit built on Jan  4 2015 16:48:44
_STATISTICS_WRITING_DATE_UT : 2015-01-12 21:02:47
_STATISTICS_TAGS            : BPS DURATION NUMBER_OF_FRAMES NUMBER_OF_BYTES
Video
ID                          : 1
Format                      : AVC
Format/Info                 : Advanced Video Codec
Format profile              : High@L4.1
Format settings, CABAC      : Yes
Format settings, ReFrames   : 5 frames
Codec ID                    : V_MPEG4/ISO/AVC
Duration                    : 1h 40mn
Bit rate                    : 5 456 Kbps
Width                       : 1 280 pixels
Height                      : 720 pixels
Display aspect ratio        : 16:9
Frame rate mode             : Constant
Frame rate                  : 23.976 fps
Color space                 : YUV
Chroma subsampling          : 4:2:0
Bit depth                   : 8 bits
Scan type                   : Progressive
Bits/(Pixel*Frame)          : 0.247
Stream size                 : 3.75 GiB (91%)
Title                       : 1280x720, 23.976 fps, x264 ~5456 kbps
Writing library             : x264 core 120 r2120 0c7dab9
Encoding settings           : cabac=1 / ref=5 / deblock=1:0:0 / analyse=0x3:0x133 / me=umh / subme=8 / psy=1 / psy_rd=1.00:0.00 / mixed_ref=1 / me_range=16 / chroma_me=1 / trellis=1 / 8x8dct=1 / cqm=0 / deadzone=21,11 / fast_pskip=0 / chroma_qp_offset=-2 / threads=18 / sliced_threads=0 / nr=0 / decimate=1 / interlaced=0 / bluray_compat=0 / constrained_intra=0 / bframes=3 / b_pyramid=2 / b_adapt=1 / b_bias=0 / direct=1 / weightb=1 / open_gop=0 / weightp=2 / keyint=250 / keyint_min=23 / scenecut=40 / intra_refresh=0 / rc_lookahead=40 / rc=2pass / mbtree=1 / bitrate=5456 / ratetol=1.0 / qcomp=0.60 / qpmin=0 / qpmax=69 / qpstep=4 / cplxblur=20.0 / qblur=0.5 / ip_ratio=1.40 / aq=1:1.00
Language                    : English
Default                     : Yes
Forced                      : No
DURATION                    : 01:40:29.983000000
NUMBER_OF_FRAMES            : 144575
NUMBER_OF_BYTES             : 4109463077
_STATISTICS_WRITING_APP     : mkvmerge v7.5.0 ('Glass Culture') 64bit built on Jan  4 2015 16:48:44
_STATISTICS_WRITING_DATE_UT : 2015-01-12 21:02:47
_STATISTICS_TAGS            : BPS DURATION NUMBER_OF_FRAMES NUMBER_OF_BYTES
Audio #1
ID                          : 2
Format                      : AC-3
Format/Info                 : Audio Coding 3
Mode extension              : CM (complete main)
Format settings, Endianness : Big
Codec ID                    : A_AC3
Duration                    : 1h 40mn
Bit rate mode               : Constant
Bit rate                    : 192 Kbps
Channel(s)                  : 2 channels
Channel positions           : Front: L R
Sampling rate               : 48.0 KHz
Bit depth                   : 16 bits
Compression mode            : Lossy
Stream size                 : 138 MiB (3%)
Title                       : RUS DVO DD 2.0, 48 kHz, 192 kbps
Language                    : Russian
Default                     : Yes
Forced                      : No
Audio #2
ID                          : 3
Format                      : AC-3
Format/Info                 : Audio Coding 3
Mode extension              : CM (complete main)
Format settings, Endianness : Big
Codec ID                    : A_AC3
Duration                    : 1h 40mn
Bit rate mode               : Constant
Bit rate                    : 192 Kbps
Channel(s)                  : 2 channels
Channel positions           : Front: L R
Sampling rate               : 48.0 KHz
Bit depth                   : 16 bits
Compression mode            : Lossy
Stream size                 : 138 MiB (3%)
Title                       : ENG DD 2.0, 48 kHz, 192 kbps
Language                    : English
Default                     : No
Forced                      : No

Скриншоты


[Профиль] [ЛС]
Кто просматривает тему:

Показать сообщения:    

Текущее время: Сегодня 12:12

Часовой пояс: GMT



Вы не можете начинать темы
Вы не можете отвечать на сообщения
Вы не можете редактировать свои сообщения
Вы не можете удалять свои сообщения
Вы не можете голосовать в опросах
Вы не можете прикреплять файлы к сообщениям
Вы не можете скачивать файлы