Бугимен 3 / Boogeyman 3 (2008) BDRip 1080p | P, L2, L1

 
Автор Сообщение

Russian Mafia ®

Пол:

Стаж: 1 год 8 месяцев

Сообщений: 4257



Награды: 10 (Подробнее)

Mega Seeder 2 (Количество: 1) За внесенный вклад в развитие сайта (Количество: 1) Top Releaser 5 (Количество: 1)
Торрент-статистика

Создавать темы 16-Апр-2016 03:28

[Цитировать]

Название: Бугимен 3
Оригинальное название: Boogeyman 3
Год выхода: 2008
Страна: США
Студия: Stage 6 Films, Ghost House Pictures, B and G Derivatives Holdings
Продолжительность: 01:34:20
Жанр: ужасы, триллер, ...
Режиссер: Гари Джонс
В ролях: Эрин Кехилл, Чак Хэттингер, Мими Майклс, Мэтт Риппи, Никки Сандерсон, В.Б. Александер, Элис Гэбел, Джордж Магуайр, Джэйн Вайзенер, Кейт Маберли, ...
Перевод:
Профессиональный (многоголосный, закадровый) CP Digital
Любительский (двухголосый, закадровый)
Любительский (одноголосый, закадровый)
О фильме: В центре сюжета на этот раз девушка по имени Сара Моррис. В комнате, которую она снимает, было совершено самоубийство, что выпустило на свободу Бугимена. Сара пытается убедить окружающих в том, что она не сошла с ума, те ей, конечно, не верят. Зло становится сильнее и друзья героини начинают погибать. Сумеет ли Сара справиться с этим кошмаром?…

Кодек: x264
Качество: BDRip 1080p
Видео: 1920x1080, 12000 kbps, 24 fps
Аудио #1: AC-3, 6 ch, 448 kbps (Rus) - MVO CP Digital
Аудио #2: AC-3, 2 ch, 192 kbps (Rus) - DVOL
Аудио #3: AC-3, 2 ch, 192 kbps (Rus) - VO
Аудио #4: AC-3, 6 ch, 448 kbps (Eng)
Субтитры: Русские, Английские

Дополнительная информация

За исходник спасибо - Гость

MediaInfo

x264 [info]: frame I:748 Avg QP:16.07 size:163440
x264 [info]: frame P:29483 Avg QP:17.57 size: 94812
x264 [info]: frame B:105614 Avg QP:19.51 size: 52683
x264 [info]: consecutive B-frames: 2.0% 2.2% 11.7% 10.3% 15.5% 54.0% 2.5% 0.4% 0.2% 0.2% 0.1% 0.5% 0.2%
Общее
Уникальный идентификатор : 189685850584591508108412094779858000542 (0x8EB42A7CCBE47C818F3C9657A9EA9A9E)
Полное имя : Бугимен 3 (Boogeyman 3) 2008 BDRip 1080p.mkv
Формат : Matroska
Версия формата : Version 2
Размер файла : 8,74 Гбайт
Продолжительность : 1 ч. 34 м.
Общий поток : 13,3 Мбит/сек
Дата кодирования : UTC 2016-04-14 12:13:13
Программа кодирования : mkvmerge v4.0.0 ('The Stars were mine') сборка от Jun 6 2010 16:18:42
Библиотека кодирования : libebml v1.0.0 + libmatroska v1.0.0
Видео
Идентификатор : 1
Формат : AVC
Формат/Информация : Advanced Video Codec
Профиль формата : High@L4.1
Параметр CABAC формата : Да
Параметр ReFrames формата : 4 кадра
Идентификатор кодека : V_MPEG4/ISO/AVC
Продолжительность : 1 ч. 34 м.
Битрейт : 12,0 Мбит/сек
Ширина : 1920 пикселей
Высота : 1080 пикселей
Соотношение сторон : 16:9
Режим частоты кадров : Постоянный
Частота кадров : 24,000 кадра/сек
Цветовое пространство : YUV
Субдискретизация насыщенности : 4:2:0
Битовая глубина : 8 бит
Тип развёртки : Прогрессивная
Бит/(Пиксели*Кадры) : 0.241
Размер потока : 7,73 Гбайт (88%)
Библиотека кодирования : x264 core 146 r2538 121396c
Настройки программы : cabac=1 / ref=4 / deblock=1:-3:-3 / analyse=0x3:0x133 / me=umh / subme=11 / psy=1 / psy_rd=1.02:0.12 / mixed_ref=1 / me_range=32 / chroma_me=1 / trellis=2 / 8x8dct=1 / cqm=0 / deadzone=21,11 / fast_pskip=0 / chroma_qp_offset=-3 / threads=12 / lookahead_threads=2 / sliced_threads=0 / nr=0 / decimate=0 / interlaced=0 / bluray_compat=0 / constrained_intra=0 / bframes=12 / b_pyramid=2 / b_adapt=2 / b_bias=0 / direct=3 / weightb=1 / open_gop=0 / weightp=2 / keyint=240 / keyint_min=24 / scenecut=40 / intra_refresh=0 / rc_lookahead=60 / rc=2pass / mbtree=0 / bitrate=12000 / ratetol=1.0 / qcomp=0.60 / qpmin=0 / qpmax=69 / qpstep=4 / cplxblur=20.0 / qblur=0.5 / vbv_maxrate=50000 / vbv_bufsize=62500 / nal_hrd=none / filler=0 / ip_ratio=1.40 / pb_ratio=1.30 / aq=1:0.80
Язык : English
Default : Нет
Forced : Нет
Аудио #1
Идентификатор : 2
Формат : AC-3
Формат/Информация : Audio Coding 3
Расширение режима : CM (complete main)
Параметр Endianness формата : Big
Идентификатор кодека : A_AC3
Продолжительность : 1 ч. 34 м.
Вид битрейта : Постоянный
Битрейт : 448 Кбит/сек
Каналы : 6 каналов
Расположение каналов : Front: L C R, Side: L R, LFE
Частота : 48,0 КГц
Метод сжатия : С потерями
Размер потока : 302 Мбайт (3%)
Заголовок : MVO CP Digital
Язык : Russian
Default : Нет
Forced : Нет
Аудио #2
Идентификатор : 3
Формат : AC-3
Формат/Информация : Audio Coding 3
Расширение режима : CM (complete main)
Параметр Endianness формата : Big
Идентификатор кодека : A_AC3
Продолжительность : 1 ч. 34 м.
Вид битрейта : Постоянный
Битрейт : 192 Кбит/сек
Каналы : 2 канала
Расположение каналов : Front: L R
Частота : 48,0 КГц
Метод сжатия : С потерями
Размер потока : 130 Мбайт (1%)
Заголовок : DVOL
Язык : Russian
Default : Нет
Forced : Нет
Аудио #3
Идентификатор : 4
Формат : AC-3
Формат/Информация : Audio Coding 3
Расширение режима : CM (complete main)
Параметр Endianness формата : Big
Идентификатор кодека : A_AC3
Продолжительность : 1 ч. 34 м.
Вид битрейта : Постоянный
Битрейт : 192 Кбит/сек
Каналы : 2 канала
Расположение каналов : Front: L R
Частота : 48,0 КГц
Метод сжатия : С потерями
Размер потока : 130 Мбайт (1%)
Заголовок : VO
Язык : Russian
Default : Нет
Forced : Нет
Аудио #4
Идентификатор : 5
Формат : AC-3
Формат/Информация : Audio Coding 3
Расширение режима : CM (complete main)
Параметр Endianness формата : Big
Идентификатор кодека : A_AC3
Продолжительность : 1 ч. 34 м.
Вид битрейта : Постоянный
Битрейт : 448 Кбит/сек
Каналы : 6 каналов
Расположение каналов : Front: L C R, Side: L R, LFE
Частота : 48,0 КГц
Метод сжатия : С потерями
Размер потока : 302 Мбайт (3%)
Язык : English
Default : Нет
Forced : Нет
Текст #1
Идентификатор : 6
Формат : UTF-8
Идентификатор кодека : S_TEXT/UTF8
Идентификатор кодека/Информация : UTF-8 Plain Text
Язык : Russian
Default : Нет
Forced : Нет
Текст #2
Идентификатор : 7
Формат : UTF-8
Идентификатор кодека : S_TEXT/UTF8
Идентификатор кодека/Информация : UTF-8 Plain Text
Язык : English
Default : Нет
Forced : Нет

[Профиль] [ЛС]
Показать сообщения:    

Текущее время: Сегодня 00:34

Часовой пояс: GMT



Вы не можете начинать темы
Вы не можете отвечать на сообщения
Вы не можете редактировать свои сообщения
Вы не можете удалять свои сообщения
Вы не можете голосовать в опросах
Вы не можете прикреплять файлы к сообщениям
Вы не можете скачивать файлы