Бугимен / The Boogey Man (1980) BDRip 1080p | P2, A

 
Автор Сообщение

Russian Mafia ®

Пол:

Стаж: 1 год 8 месяцев

Сообщений: 4246



Награды: 10 (Подробнее)

Top Releaser 4 (Количество: 1) Top Releaser 2 (Количество: 1) Mega Seeder 1 (Количество: 1)
Торрент-статистика

Создавать темы 16-Апр-2016 03:29

[Цитировать]

Название: Бугимен
Оригинальное название: The Boogey Man
Год выхода: 1980
Страна: США
Студия: Jerry Gross Organization, The
Продолжительность: 01:21:52
Жанр: ужасы, ...
Режиссер: Улли Ломмель
В ролях: Сюзанна Лав, Рон Джеймс, Джон Кэрредин, Николас Лав, Рэймонд Бойден, Фелисите Морган, Билл Рэйберн, Льюэлин Томас, Джей Райт, Наташа Скьяно, ...
Перевод:
Профессиональный (двуголосый, закадровый)
Авторский (одноголосый, закадровый) Гаврилов Андрей Юрьевич
Авторский (одноголосый, закадровый) Кузнецов Сергей
О фильме: Маленькая Лейси и ее брат Уилли подглядывают через окно за своей пьяной матерью, которая развлекается с очередным любовником. Взрослые замечают, что дети наблюдают за ними, и принимают меры к тому, чтобы маленькие негодники оставили их в покое. Какие меры? Самые суровые! Приятель матери привязывает Уилли к кровати и затыкает рот кляпом.
Проходит двадцать лет…

Кодек: x264
Качество: BDRip 1080p
Видео: 1920x1080, 14000 kbps, 23,976 fps
Аудио #1: AC-3, 2 ch, 256 kbps (Rus) - DVO
Аудио #1: AC-3, 2 ch, 192 kbps (Rus) - AVO Гаврилов Андрей Юрьевич
Аудио #3: AC-3, 2 ch, 192 kbps (Rus) - AVO Кузнецов Сергей
Аудио #4: AC-3, 2 ch, 384kbps (Eng)
Субтитры: Нет

Дополнительная информация

За исходник спасибо - Mirmekiy

MediaInfo

x264 [info]: frame I:724 Avg QP:18.85 size:276501
x264 [info]: frame P:20694 Avg QP:21.21 size:138789
x264 [info]: frame B:96374 Avg QP:23.08 size: 57309
x264 [info]: consecutive B-frames: 1.2% 1.1% 3.7% 17.3% 11.3% 7.4% 10.7% 41.2% 5.9% 0.1% 0.0% 0.0% 0.0%
Общее
Уникальный идентификатор : 183901278366668954767986438601932533625 (0x8A5A190EC73215318DCA0E780DC7EF79)
Полное имя : Бугимен (The Boogey Man) 1980 BDRip 1080p.mkv
Формат : Matroska
Версия формата : Version 2
Размер файла : 8,59 Гбайт
Продолжительность : 1 ч. 21 м.
Общий поток : 15,0 Мбит/сек
Дата кодирования : UTC 2016-04-13 03:49:48
Программа кодирования : mkvmerge v4.0.0 ('The Stars were mine') сборка от Jun 6 2010 16:18:42
Библиотека кодирования : libebml v1.0.0 + libmatroska v1.0.0
Видео
Идентификатор : 1
Формат : AVC
Формат/Информация : Advanced Video Codec
Профиль формата : High@L4.1
Параметр CABAC формата : Да
Параметр ReFrames формата : 4 кадра
Идентификатор кодека : V_MPEG4/ISO/AVC
Продолжительность : 1 ч. 21 м.
Битрейт : 14,0 Мбит/сек
Ширина : 1920 пикселей
Высота : 1080 пикселей
Соотношение сторон : 16:9
Режим частоты кадров : Постоянный
Частота кадров : 23,976 кадра/сек
Цветовое пространство : YUV
Субдискретизация насыщенности : 4:2:0
Битовая глубина : 8 бит
Тип развёртки : Прогрессивная
Бит/(Пиксели*Кадры) : 0.282
Размер потока : 7,84 Гбайт (91%)
Библиотека кодирования : x264 core 146 r2538 121396c
Настройки программы : cabac=1 / ref=4 / deblock=1:-3:-3 / analyse=0x3:0x133 / me=umh / subme=11 / psy=1 / psy_rd=1.10:0.16 / mixed_ref=1 / me_range=32 / chroma_me=1 / trellis=2 / 8x8dct=1 / cqm=0 / deadzone=21,11 / fast_pskip=0 / chroma_qp_offset=-3 / threads=12 / lookahead_threads=2 / sliced_threads=0 / nr=0 / decimate=0 / interlaced=0 / bluray_compat=0 / constrained_intra=0 / bframes=12 / b_pyramid=2 / b_adapt=2 / b_bias=0 / direct=3 / weightb=1 / open_gop=0 / weightp=2 / keyint=240 / keyint_min=23 / scenecut=40 / intra_refresh=0 / rc_lookahead=60 / rc=2pass / mbtree=0 / bitrate=14000 / ratetol=1.0 / qcomp=0.60 / qpmin=0 / qpmax=69 / qpstep=4 / cplxblur=20.0 / qblur=0.5 / vbv_maxrate=50000 / vbv_bufsize=62500 / nal_hrd=none / filler=0 / ip_ratio=1.40 / pb_ratio=1.30 / aq=1:0.90
Язык : English
Default : Нет
Forced : Нет
Аудио #1
Идентификатор : 2
Формат : AC-3
Формат/Информация : Audio Coding 3
Расширение режима : CM (complete main)
Параметр Endianness формата : Big
Идентификатор кодека : A_AC3
Продолжительность : 1 ч. 21 м.
Вид битрейта : Постоянный
Битрейт : 256 Кбит/сек
Каналы : 2 канала
Расположение каналов : Front: L R
Частота : 48,0 КГц
Метод сжатия : С потерями
Размер потока : 150 Мбайт (2%)
Заголовок : DVO
Язык : Russian
Default : Нет
Forced : Нет
Аудио #2
Идентификатор : 3
Формат : AC-3
Формат/Информация : Audio Coding 3
Расширение режима : CM (complete main)
Параметр Endianness формата : Big
Идентификатор кодека : A_AC3
Продолжительность : 1 ч. 21 м.
Вид битрейта : Постоянный
Битрейт : 192 Кбит/сек
Каналы : 2 канала
Расположение каналов : Front: L R
Частота : 48,0 КГц
Метод сжатия : С потерями
Размер потока : 112 Мбайт (1%)
Заголовок : AVO Гаврилов Андрей Юрьевич
Язык : Russian
Default : Нет
Forced : Нет
Аудио #3
Идентификатор : 4
Формат : AC-3
Формат/Информация : Audio Coding 3
Расширение режима : CM (complete main)
Параметр Endianness формата : Big
Идентификатор кодека : A_AC3
Продолжительность : 1 ч. 21 м.
Вид битрейта : Постоянный
Битрейт : 192 Кбит/сек
Каналы : 2 канала
Расположение каналов : Front: L R
Частота : 48,0 КГц
Метод сжатия : С потерями
Размер потока : 112 Мбайт (1%)
Заголовок : AVO Кузнецов Сергей
Язык : Russian
Default : Нет
Forced : Нет
Аудио #4
Идентификатор : 5
Формат : AC-3
Формат/Информация : Audio Coding 3
Расширение режима : CM (complete main)
Параметр Endianness формата : Big
Идентификатор кодека : A_AC3
Продолжительность : 1 ч. 21 м.
Вид битрейта : Постоянный
Битрейт : 384 Кбит/сек
Каналы : 2 канала
Расположение каналов : Front: L R
Частота : 48,0 КГц
Метод сжатия : С потерями
Размер потока : 225 Мбайт (3%)
Язык : English
Default : Нет
Forced : Нет

[Профиль] [ЛС]
Показать сообщения:    

Текущее время: Сегодня 00:37

Часовой пояс: GMT



Вы не можете начинать темы
Вы не можете отвечать на сообщения
Вы не можете редактировать свои сообщения
Вы не можете удалять свои сообщения
Вы не можете голосовать в опросах
Вы не можете прикреплять файлы к сообщениям
Вы не можете скачивать файлы