Брэнниган / Brannigan (1975) HDRip от Шкипер | P

 
Автор Сообщение

Шкипер ®

Пол:

Стаж: 1 год 8 месяцев

Сообщений: 53



Награды: Нет

Торрент-статистика

Создавать темы 28-Июн-2016 12:34

[Цитировать]

Информация о фильме
Название: Брэнниган
Оригинальное название: Brannigan
Год выхода: 1975
Жанр: Боевик, комедия, криминал
Режиссер: Дуглас Хикокс
В ролях: Джон Уэйн, Ральф Микер, Брайан Гловер, Ричард Аттенборо, Дэниэл Пилон, Кэтрин Ли Скотт, Энтони Бут, Джон Страйд, Артур Батанидес, Лесли-Энн Даун, Полин Делани, Дел Хенни, Джанетт Лидж, Джон Вернон, Джеймс Бут, Мэл Феррер, Джуди Гисон, Барри Деннен
О фильме: Герой детективного триллера «Брэнниган» – полицейский детектив из Чикаго, которого отправляют в Лондон для того, чтобы он организовал доставку в США крупного американского мафиози, ожидающего экстрадиции. Однако по прибытии на место Джим Брэнниган (Джон Уэйн) обнаруживает, что гангстера похитили. Остаток фильма он проводит, рыская по городу в поисках похищенного мафиози. Пытаясь приспособиться к британскому образу жизни с его сдержанным стилем общения, Брэнниган, тем не менее, предпочитает опираться на собственные методы следствия, столь отличные от методов Скотланд-Ярда.

Страна: Великобритания
Студия: Wellborn, Levy-Gardner-Laven
Продолжительность: 01:51:18
Перевод: Профессиональный (многоголосый, закадровый)
Файл
Кодек: XviD
Качество: HDRip
Видео: 640x272 (2.35:1), 23.976 fps, XviD build 73 ~800 kbps avg, 0.19 bit/pixel
Звук: 48 kHz, MPEG Layer 3, 2 ch, ~128.00 kbps avg
Субтитры: Отсутствуют
Семпл

MI

General
Complete name : D:Изготовление рипаBrannigan.1975.НDRip.by shkiper.avi
Format : AVI
Format/Info : Audio Video Interleave
File size : 746 MiB
Duration : 1h 51mn
Overall bit rate : 938 Kbps
Writing application : VirtualDubMod 1.5.10.3 | www.virtualdub-fr.org || (build 2550/release)
Writing library : VirtualDubMod build 2550/release
Video
ID : 0
Format : MPEG-4 Visual
Format profile : Advanced Simple@L5
Format settings, BVOP : 1
Format settings, QPel : No
Format settings, GMC : No warppoints
Format settings, Matrix : Custom
Codec ID : XVID
Codec ID/Hint : XviD
Duration : 1h 51mn
Bit rate : 800 Kbps
Width : 640 pixels
Height : 272 pixels
Display aspect ratio : 2.35:1
Frame rate : 23.976 (23976/1000) fps
Color space : YUV
Chroma subsampling : 4:2:0
Bit depth : 8 bits
Scan type : Progressive
Compression mode : Lossy
Bits/(Pixel*Frame) : 0.192
Stream size : 637 MiB (85%)
Writing library : XviD 73
Audio
ID : 1
Format : MPEG Audio
Format version : Version 1
Format profile : Layer 3
Codec ID : 55
Codec ID/Hint : MP3
Duration : 1h 51mn
Bit rate mode : Constant
Bit rate : 128 Kbps
Channel(s) : 2 channels
Sampling rate : 48.0 KHz
Compression mode : Lossy
Stream size : 102 MiB (14%)
Alignment : Aligned on interleaves
Interleave, duration : 42 ms (1.00 video frame)
Interleave, preload duratio : 504 ms
Writing library : LAME3.99r
Encoding settings : -m s -V 4 -q 2 -lowpass 17 -b 128

Скриншоты

Релиз от:
[Профиль] [ЛС]
Кто просматривает тему:

Показать сообщения:    

Текущее время: Сегодня 04:31

Часовой пояс: GMT



Вы не можете начинать темы
Вы не можете отвечать на сообщения
Вы не можете редактировать свои сообщения
Вы не можете удалять свои сообщения
Вы не можете голосовать в опросах
Вы не можете прикреплять файлы к сообщениям
Вы не можете скачивать файлы