Бруклин / Brooklyn (2015) BDRip-AVC | Лицензия

 
Автор Сообщение

достали все ®

Пол:

Стаж: 1 год 8 месяцев

Сообщений: 6581



Награды: 12 (Подробнее)

Top Releaser 4 (Количество: 1) Mega Seeder 4 (Количество: 1) Mega Releaser 2 (Количество: 1)
Торрент-статистика

Создавать темы 21-Мар-2016 07:54

[Цитировать]

Информация о фильме
Название: Бруклин
Оригинальное название: Brooklyn
Год выпуска: 2015
Страна: Ирландия, Великобритания, Канада
Жанр: драма, мелодрама-Перевод: Профессиональный многоголосый [Лицензия]
Продолжительность: 01:51:58-Режиссер: Джон Краули
В ролях: Сирша Ронан (Eilis Lacey), Эмори Коэн (Tony Fiorello), Донал Глисон (Jim Farrell), Джим Бродбент (Father Flood), Джули Уолтерс (Mrs. Keogh), Брид Бреннан (Miss Kelly), Джейн Бреннан (Mary Lacey), Фиона Глэскотт (Rose Lacey), Джессика Паре (Miss Fortini), Эйлин О’Хиггинс (Nancy), Дженн Мюррэй (Dolores), Эмили Бетт Рикардс (Patty)-Описание:
История Эйлиш Лейси, которая неохотно покидает свою родную ирландскую деревню и отправляется на поиски работы в Америку. В итоге она поселяется в Бруклине, постепенно излечивается от ностальгии и начинает наслаждаться воздухом свободы. Ко всему прочему Эйлиш влюбляется, но трагические новости с родины заставляют ее вернуться в Ирландию, где она встречает другого мужчину и в результате вынуждена делать нелегкий выбор.-Рейтинг:

MPAA: PG-13 - Детям до 13 лет просмотр не желателен-Качество: BDRip-AVC
Формат: MKV
Видео: AVC, 1024x552 (1.855), 1417 kbps, 23,976 fps, 0,105 bpp
Аудио: русский / AC3 / 5.1 / 48 kHz / 448 kbps / 16 bit-Релиз от: by schultz

ОтчетМедиаИнфо

General
Unique ID : 221255212464338269423180325971907278893 (0xA674343308219D138064272EB1AB782D)
Complete name : D:downloadBruklin.2015.BDRip-AVC by schultz R.G.Resident.mkv
Format : Matroska
Format version : Version 2
File size : 1.46 GiB
Duration : 1h 51mn
Overall bit rate : 1 866 Kbps
Encoded date : UTC 2016-03-20 19:35:43
Writing application : mkvmerge v7.8.0 ('River Man') 32bit built on Apr 3 2015 12:11:22
Writing library : libebml v1.3.1 + libmatroska v1.4.2
Video
ID : 1
Format : AVC
Format/Info : Advanced Video Codec
Format profile : High@L4.1
Format settings, CABAC : Yes
Format settings, ReFrames : 12 frames
Codec ID : V_MPEG4/ISO/AVC
Duration : 1h 51mn
Bit rate : 1 417 Kbps
Width : 1 024 pixels
Height : 552 pixels
Display aspect ratio : 1.855
Frame rate : 23.976 fps
Color space : YUV
Chroma subsampling : 4:2:0
Bit depth : 8 bits
Scan type : Progressive
Bits/(Pixel*Frame) : 0.105
Stream size : 1.08 GiB (74%)
Writing library : x264 core 146 r2538 121396c
Encoding settings : cabac=1 / ref=12 / deblock=1:-3:-3 / analyse=0x3:0x113 / me=umh / subme=11 / psy=1 / psy_rd=1.00:0.00 / mixed_ref=1 / me_range=48 / chroma_me=1 / trellis=2 / 8x8dct=1 / cqm=0 / deadzone=21,11 / fast_pskip=0 / chroma_qp_offset=-2 / threads=12 / lookahead_threads=3 / sliced_threads=0 / nr=0 / decimate=1 / interlaced=0 / bluray_compat=0 / constrained_intra=0 / bframes=13 / b_pyramid=2 / b_adapt=2 / b_bias=0 / direct=3 / weightb=1 / open_gop=0 / weightp=2 / keyint=240 / keyint_min=23 / scenecut=40 / intra_refresh=0 / rc_lookahead=40 / rc=2pass / mbtree=1 / bitrate=1417 / ratetol=1.0 / qcomp=0.60 / qpmin=0 / qpmax=69 / qpstep=4 / cplxblur=20.0 / qblur=0.5 / vbv_maxrate=14000 / vbv_bufsize=14000 / nal_hrd=none / filler=0 / ip_ratio=1.40 / aq=1:1.00
Default : Yes
Forced : No
Audio
ID : 2
Format : AC-3
Format/Info : Audio Coding 3
Mode extension : CM (complete main)
Codec ID : A_AC3
Duration : 1h 51mn
Bit rate mode : Constant
Bit rate : 448 Kbps
Channel(s) : 6 channels
Channel positions : Front: L C R, Side: L R, LFE
Sampling rate : 48.0 KHz
Bit depth : 16 bits
Compression mode : Lossy
Stream size : 359 MiB (24%)
Title : ПМ [Лицензия]
Language : Russian
Default : No
Forced : No

Скриншоты

[Профиль] [ЛС]
Показать сообщения:    

Текущее время: Сегодня 22:23

Часовой пояс: GMT



Вы не можете начинать темы
Вы не можете отвечать на сообщения
Вы не можете редактировать свои сообщения
Вы не можете удалять свои сообщения
Вы не можете голосовать в опросах
Вы не можете прикреплять файлы к сообщениям
Вы не можете скачивать файлы