Бруклинские полицейские / Brooklyn\'s Finest (Антуан Фукуа / Antoine Fuqua) [2009, США, триллер, драма, криминал, DVDRip] [Open Matte] AVO (Иванов)

 
Автор Сообщение

TorrentFilm ®

Пол:

Стаж: 2 года

Сообщений: 7741



Награды: Нет

Торрент-статистика

Создавать темы 14-Мар-2015 00:01

[Цитировать]

Бруклинские полицейские / Brooklyn's Finest Страна: США
Жанр: триллер, драма, криминал
Год выпуска: 2009
Продолжительность: 02:06:54
Перевод: Авторский (одноголосый, закадровый) Михаил Иванов
Cубтитры: нет
Режиссер: Антуан Фукуа / Antoine Fuqua
В ролях: Ричард Гир, Дон Чидл, Этан Хоук, Уэсли Снайпс, Винсент Д`Онофрио, Брайан Ф. О’Бирн, Уилл Пэттон, Лили Тейлор, Эллен Баркин, Джесси Уильямс
Описание: Фильм повествует о трех никак между собой не связанных бруклинских полицейских, которые оказываются в одной судьбоносной сюжетной точке, несмотря на совершенно разные карьеры: один — работает под прикрытием в среде наркомафии, второй — коррумпирован по самое не балуйся, третий — всегда играл по правилам и теперь хочет только спокойно дожить до почетной отставки.
СЭМПЛ
Качество видео: DVDRip
Формат видео: AVI
Видео кодек: XviD
Аудио кодек: AC3
Видео: 688x384 (1.79:1), 25 fps, XviD build 73 ~1422 kbps avg, 0.22 bit/pixel
Аудио#1: 48 kHz, AC3 Dolby Digital, 2/0 (L,R) ch, ~224 kbps

Доп.инфо

за Иванова спасибо DeASS и budulai-8, а также всем тем, кто был причастен, к появлению данного перевода.

MediaInfo

Полное имя : Бруклинские полицейские.avi
Формат : AVI
Формат/Информация : Audio Video Interleave
Размер файла : 1,47 Гбайт
Продолжительность : 2 ч. 6 м.
Общий поток : 1656 Кбит/сек
Программа кодирования : VirtualDubMod 1.5.10.2 (build 2540/release)
Видео
Идентификатор : 0
Формат : MPEG-4 Visual
Профиль формата : Advanced Simple@L5
Параметр BVOP формата : 2
Параметр QPel формата : Нет
Параметр GMC формата : Без точки перехода
Параметр матрицы формата : Выборочная
Идентификатор кодека : XVID
Идентификатор кодека/Подсказка : XviD
Продолжительность : 2 ч. 6 м.
Битрейт : 1423 Кбит/сек
Ширина : 688 пикселей
Высота : 384 пикселя
Соотношение сторон : 16:9
Частота кадров : 25,000 кадров/сек
Цветовое пространство : YUV
Субдискретизация насыщенности : 4:2:0
Битовая глубина : 8 бит
Тип развёртки : Прогрессивная
Метод сжатия : С потерями
Бит/(Пиксели*Кадры) : 0.215
Размер потока : 1,26 Гбайт (86%)
Библиотека кодирования : XviD 73
Аудио
Идентификатор : 1
Формат : AC-3
Формат/Информация : Audio Coding 3
Расширение режима : CM (complete main)
Параметр Endianness формата : Big
Идентификатор кодека : 2000
Продолжительность : 2 ч. 6 м.
Вид битрейта : Постоянный
Битрейт : 224 Кбит/сек
Каналы : 2 канала
Расположение каналов : Front: L R
Частота : 48,0 КГц
Битовая глубина : 16 бит
Метод сжатия : С потерями
Размер потока : 203 Мбайт (14%)
Выравнивание : Разделение по промежуткам
Продолжительность промежутка : 40 мс. (1,00 видеокадр)
Время предзагрузки промежутка : 500 мс.

Скриншоты


[Профиль] [ЛС]

Создавать темы 06-Авг-2015 22:42 (спустя 4 месяца 23 дня)

Топик был перенесен из форума Фильмы до 2014 года в форум Фильмы до 2012 года
sergej644
 

Создавать темы 12-Июн-2016 08:49 (спустя 1 год 2 месяца)

Топик был перенесен из форума Фильмы 2011 года в форум Фильмы 2009 года
Russian Mafia
 
Показать сообщения:    

Текущее время: Сегодня 10:06

Часовой пояс: GMT



Вы не можете начинать темы
Вы не можете отвечать на сообщения
Вы не можете редактировать свои сообщения
Вы не можете удалять свои сообщения
Вы не можете голосовать в опросах
Вы не можете прикреплять файлы к сообщениям
Вы не можете скачивать файлы