Бронзовая птица (1974) DVDRip-AVC

 
Автор Сообщение

sergej644 ®

Пол:

Стаж: 4 года 11 месяцев

Сообщений: 6043

Откуда: Soviet Union



Награды: Нет

Торрент-статистика

Создавать темы 16-Июл-2015 11:26

[Цитировать]

Информация о фильме
Название: Бронзовая птица
Год выхода: 1974
Жанр: Экранизация, приключения, семейный, детский
Режиссер: Николай Калинин
В ролях: Сергей Шевкуненко, Владимир Дичковский, Игорь Шульженко, Мария Капнист, Юрий Сидоров, Виктор Чекмарёв, Александр Кузьмин, Олег Севостьянов, Августин Милованов, Николай Крюков, Лилия Гурова, Любовь Малиновская, Наталья Чемодурова
О фильме: Второй фильм приключенческой трилогии ("Кортик", "Бронзовая птица", "Последнее лето детства"). Продолжение приключений Миши Полякова и его друзей. Действие фильма происходит в Подмосковье в 1920-е годы. Главные герои летом отправляются отдыхать в пионерский лагерь, который был разбит недалеко от старинного поместья помещиков Карагаевых. С этим родом связана легенда, согласно которой граф Карагаев спрятал где-то в окрестностях поместья крупный бриллиант и клад. Юные пионеры находят клад, попутно раскрывая преступление, связанное с убийством крестьянина Кузьмина...
Страна: СССР, Беларусьфильм
Продолжительность: 3 x ~ 01:03:00
Перевод: не требуется
Файл
Кодек: MKV
Качество: DVDRip-AVC
Видео: MPEG-4 AVC, ~ 2850 Кбит/с, 698x494@744x494
Звук: AC3, 2 ch, 224 Кбит/с

Скриншоты

Медиа-Инфо

raw [info]: 698x494p 16:15 @ 25/1 fps (cfr)
x264 [info]: using SAR=16/15
x264 [info]: using cpu capabilities: MMX2 SSE2Fast SSSE3 SSE4.2 AVX
x264 [info]: profile High, level 4.1
x264 [info]: frame I:472 Avg QP:17.86 size: 66464
x264 [info]: frame P:23256 Avg QP:21.39 size: 30349
x264 [info]: frame B:72716 Avg QP:23.30 size: 9428
===========================================================================================================
Общее
Уникальный идентификатор : 213173494876600787384029633595879346269 (0xA05FB8C233205893B4DCA1D467AE505D)
Полное имя : R:МОИ РИПЫБронзовая птица_1974-DVDRipAVCБронзовая птица-1.mkv
Формат : Matroska
Версия формата : Version 2
Размер файла : 1,43 Гбайт
Продолжительность : 1 ч. 4 м.
Общий поток : 3176 Кбит/сек
Дата кодирования : UTC 2015-06-17 21:23:14
Программа кодирования : mkvmerge v5.8.0 ('No Sleep / Pillow') built on Sep 2 2012 15:37:04
Библиотека кодирования : libebml v1.2.3 + libmatroska v1.3.0
Видео
Идентификатор : 1
Формат : AVC
Формат/Информация : Advanced Video Codec
Профиль формата : High@L4.1
Параметр CABAC формата : Да
Параметр ReFrames формата : 15 кадров
Идентификатор кодека : V_MPEG4/ISO/AVC
Продолжительность : 1 ч. 4 м.
Битрейт : 2950 Кбит/сек
Ширина : 698 пикселей
Высота : 494 пикселя
Соотношение сторон : 3:2
Соотношение сторон в оригинале : 3:2
Режим частоты кадров : Постоянный
Частота кадров : 25,000 кадров/сек
Цветовое пространство : YUV
Субдискретизация насыщенности : 4:2:0
Битовая глубина : 8 бит
Тип развёртки : Прогрессивная
Бит/(Пиксели*Кадры) : 0.342
Размер потока : 1,30 Гбайт (91%)
Библиотека кодирования : x264 core 146 r2538 121396c
Настройки программы : cabac=1 / ref=15 / deblock=1:-2:-2 / analyse=0x3:0x133 / me=umh / subme=10 / psy=1 / psy_rd=1.05:0.05 / mixed_ref=1 / me_range=32 / chroma_me=1 / trellis=2 / 8x8dct=1 / cqm=0 / deadzone=21,11 / fast_pskip=0 / chroma_qp_offset=-3 / threads=12 / lookahead_threads=2 / sliced_threads=0 / nr=0 / decimate=0 / interlaced=0 / bluray_compat=0 / constrained_intra=0 / bframes=7 / b_pyramid=2 / b_adapt=2 / b_bias=0 / direct=3 / weightb=1 / open_gop=0 / weightp=2 / keyint=250 / keyint_min=25 / scenecut=40 / intra_refresh=0 / rc=2pass / mbtree=0 / bitrate=2950 / ratetol=1.0 / qcomp=0.65 / qpmin=0 / qpmax=39 / qpstep=4 / cplxblur=20.0 / qblur=0.5 / ip_ratio=1.40 / pb_ratio=1.30 / aq=1:1.00
Язык : English
Default : Да
Forced : Нет
Основные цвета : BT.601 PAL
Характеристики трансфера : BT.470 System B, BT.470 System G
Коэффициенты матрицы : BT.601
Аудио
Идентификатор : 2
Формат : AC-3
Формат/Информация : Audio Coding 3
Расширение режима : CM (complete main)
Параметр Endianness формата : Big
Идентификатор кодека : A_AC3
Продолжительность : 1 ч. 4 м.
Вид битрейта : Постоянный
Битрейт : 224 Кбит/сек
Каналы : 2 канала
Расположение каналов : Front: L R
Частота : 48,0 КГц
Битовая глубина : 16 бит
Метод сжатия : С потерями
Размер потока : 103 Мбайт (7%)
Язык : Russian
Default : Да
Forced : Нет
Автор релиза:
[Профиль] [ЛС]
Кто просматривает тему:

Форум Тема Автор Размер
Отечественные мультфильмы Алеша Попович и Тугарин Змей (Константин Бронзит) [2004, мультфильм, мюзикл, комедия, BDRip] reversefile 1.45 GB
Отечественные мультфильмы Алеша Попович и Тугарин Змей / Добрыня Никитич и Змей Горыныч / Илья Муромец и Соловей Разбойник / Три богатыря и Шамаханская царица / Иван Царевич и Серый Волк (К. Бронзит, И. Максимов, В. Торопчин,... reversefile 7.31 GB
Фильмы (HD DVD, Blu-ray и BDRemux) Бронза / The Bronze (2015) BDRemux 1080p от ExKinoRay | Лицензия Russian Mafia 19.35 GB
Фильмы (HD Rips | 720p, 1080p) Бронза / The Bronze (2015) BDRip 1080p | Лицензия Russian Mafia 10.24 GB
Фильмы (HD Rips | 720p, 1080p) Бронза / The Bronze (2015) BDRip 720p | Лицензия Russian Mafia 5.29 GB
Фильмы 2015 года Бронза / The Bronze (2015) BDRip от ExKinoRay | Лицензия Russian Mafia 1.46 GB
Фильмы 2015 года Бронза / The Bronze (Брайан Бакли / Bryan Buckley) [2015, США, Комедия, драма, HDRip] MVO (Лицензия) + Sub Rus Шкипер 1.37 GB
Детские отечественные фильмы Бронзовая птица (1974) DVDRip-AVC sergej644 4.1 GB
Показать сообщения:    

Текущее время: Сегодня 16:40

Часовой пояс: GMT



Вы не можете начинать темы
Вы не можете отвечать на сообщения
Вы не можете редактировать свои сообщения
Вы не можете удалять свои сообщения
Вы не можете голосовать в опросах
Вы не можете прикреплять файлы к сообщениям
Вы не можете скачивать файлы