Бронза / The Bronze (2015) BDRemux 1080p от ExKinoRay | Лицензия

 
Автор Сообщение

Russian Mafia ®

Пол:

Стаж: 1 год 8 месяцев

Сообщений: 4247



Награды: 10 (Подробнее)

Top Releaser 3 (Количество: 1) Mega Seeder 5 (Количество: 1) За внесенный вклад в развитие сайта (Количество: 1)
Торрент-статистика

Создавать темы 07-Авг-2016 05:10

[Цитировать]

Информация о фильме
Название: Бронза
Оригинальное название: The Bronze
Год выхода: 2015
Жанр: Комедия, драма
Режиссер: Брайан Бакли
В ролях: Мелисса Рауш, Гэри Коул, Томас Миддлдитч, Себастьян Стэн, Сесили Стронг, Хейли Лу Ричардсон, Дэйл Рауль, Крэйг Килборн, Ольга Корбут
О фильме:
На Олимпиаде 2004 года в Риме гимнастка Хоуп Аннабель Греггори заняла третье место, хотя рассчитывала явно на большее. Спустя годы, Хоуп всё еще переживает ту неудачу. Но когда она решает стать тренером, у нее появляется шанс компенсировать свое досадное поражение много лет назад.

Страна: США
Студия: Duplass Brothers Productions
Продолжительность: 01:40:10
Перевод: Профессиональный многоголосый (закадровый) | Лицензия
Файл
Кодек: MPEG-4
Качество: BDRemux 1080p
Видео: 1920x1080, 24.9 Mbit/s, 23.976 fps
Звук:
Аудио #01: 48 kHz, AC3, 5.1, 640 Kbps | Профессиональный многоголосый (закадровый) | Лицензия |
Аудио #02: 48 kHz, DTS-HD MA, 5.1, 2134 kbps | Оригинал |
Субтитры: Русские (forced, full), английские

MI

General
Unique ID : 209050725524775960400578491735978798837 (0x9D45B489317F0968B8EBA25C27C3EEF5)
Complete name : G:VideoНовая папкаThe.Bronze.2015.MVO.Lic.BDREMUX.1080p.ExKinoRay.mkv
Format : Matroska
Format version : Version 4 / Version 2
File size : 19.3 GiB
Duration : 1h 40mn
Overall bit rate mode : Variable
Overall bit rate : 27.7 Mbps
Movie name : The.Bronze.2015.MVO.Lic.BDREMUX.1080p.ExKinoRay
Encoded date : UTC 2016-08-07 03:41:25
Writing application : mkvmerge v8.3.0 ('Over the Horizon') 64bit
Writing library : libebml v1.3.1 + libmatroska v1.4.2
Video
ID : 1
Format : AVC
Format/Info : Advanced Video Codec
Format profile : High@L4.1
Format settings, CABAC : Yes
Format settings, ReFrames : 2 frames
Format settings, GOP : M=1, N=10
Codec ID : V_MPEG4/ISO/AVC
Duration : 1h 40mn
Bit rate mode : Variable
Bit rate : 24.9 Mbps
Width : 1 920 pixels
Height : 1 080 pixels
Display aspect ratio : 16:9
Frame rate mode : Constant
Frame rate : 23.976 (24000/1001) fps
Color space : YUV
Chroma subsampling : 4:2:0
Bit depth : 8 bits
Scan type : Progressive
Bits/(Pixel*Frame) : 0.500
Stream size : 17.4 GiB (90%)
Language : English
Default : Yes
Forced : No
Audio #1
ID : 2
Format : AC-3
Format/Info : Audio Coding 3
Mode extension : CM (complete main)
Format settings, Endianness : Big
Codec ID : A_AC3
Duration : 1h 40mn
Bit rate mode : Constant
Bit rate : 640 Kbps
Channel(s) : 6 channels
Channel positions : Front: L C R, Side: L R, LFE
Sampling rate : 48.0 KHz
Frame rate : 31.250 fps (1536 spf)
Compression mode : Lossy
Stream size : 459 MiB (2%)
Title : DUB [Blu-Ray EUR]
Language : Russian
Default : Yes
Forced : No
Audio #2
ID : 3
Format : DTS
Format/Info : Digital Theater Systems
Format profile : MA / Core
Mode : 16
Format settings, Endianness : Big
Codec ID : A_DTS
Duration : 1h 40mn
Bit rate mode : Variable / Constant
Bit rate : 2 134 Kbps / 1 509 Kbps
Channel(s) : 6 channels
Channel positions : Front: L C R, Side: L R, LFE
Sampling rate : 48.0 KHz
Frame rate : 93.750 fps (512 spf)
Bit depth : 16 bits
Compression mode : Lossless / Lossy
Stream size : 1.49 GiB (8%)
Title : Original
Language : English
Default : No
Forced : No
Text #1
ID : 4
Format : UTF-8
Codec ID : S_TEXT/UTF8
Codec ID/Info : UTF-8 Plain Text
Duration : 1h 33mn
Bit rate : 5 bps
Count of elements : 66
Stream size : 3.57 KiB (0%)
Title : Forced [iTunes]
Language : Russian
Default : Yes
Forced : No
Text #2
ID : 5
Format : UTF-8
Codec ID : S_TEXT/UTF8
Codec ID/Info : UTF-8 Plain Text
Duration : 1h 37mn
Bit rate : 114 bps
Count of elements : 1473
Stream size : 81.9 KiB (0%)
Title : Full [iTunes]
Language : Russian
Default : No
Forced : No
Text #3
ID : 6
Format : UTF-8
Codec ID : S_TEXT/UTF8
Codec ID/Info : UTF-8 Plain Text
Duration : 1h 37mn
Bit rate : 74 bps
Count of elements : 1407
Stream size : 53.0 KiB (0%)
Title : Full
Language : English
Default : No
Forced : No
Text #4
ID : 7
Format : UTF-8
Codec ID : S_TEXT/UTF8
Codec ID/Info : UTF-8 Plain Text
Duration : 1h 38mn
Bit rate : 87 bps
Count of elements : 1782
Stream size : 63.0 KiB (0%)
Title : SDH
Language : English
Default : No
Forced : No
Menu
00:00:00.000 : en:Chapter 01
00:06:01.278 : en:Chapter 02
00:09:59.682 : en:Chapter 03
00:15:20.294 : en:Chapter 04
00:20:57.256 : en:Chapter 05
00:26:36.303 : en:Chapter 06
00:31:45.487 : en:Chapter 07
00:36:00.325 : en:Chapter 08
00:41:26.484 : en:Chapter 09
00:47:07.033 : en:Chapter 10
00:53:44.096 : en:Chapter 11
01:00:50.105 : en:Chapter 12
01:08:19.637 : en:Chapter 13
01:15:04.500 : en:Chapter 14
01:23:55.197 : en:Chapter 15
01:30:50.528 : en:Chapter 16

Скриншоты

Релиз от: Автор релиза:
[Профиль] [ЛС]
Кто просматривает тему:

Форум Тема Автор Размер
Отечественные мультфильмы Алеша Попович и Тугарин Змей (Константин Бронзит) [2004, мультфильм, мюзикл, комедия, BDRip] reversefile 1.45 GB
Отечественные мультфильмы Алеша Попович и Тугарин Змей / Добрыня Никитич и Змей Горыныч / Илья Муромец и Соловей Разбойник / Три богатыря и Шамаханская царица / Иван Царевич и Серый Волк (К. Бронзит, И. Максимов, В. Торопчин,... reversefile 7.31 GB
Фильмы (HD Rips | 720p, 1080p) Бронза / The Bronze (2015) BDRip 1080p | Лицензия Russian Mafia 10.24 GB
Фильмы (HD Rips | 720p, 1080p) Бронза / The Bronze (2015) BDRip 720p | Лицензия Russian Mafia 5.29 GB
Фильмы 2015 года Бронза / The Bronze (2015) BDRip от ExKinoRay | Лицензия Russian Mafia 1.46 GB
Фильмы 2015 года Бронза / The Bronze (Брайан Бакли / Bryan Buckley) [2015, США, Комедия, драма, HDRip] MVO (Лицензия) + Sub Rus Шкипер 1.37 GB
Детские отечественные фильмы Бронзовая птица (1974) DVDRip-AVC sergej644 4.1 GB
Классика зарубежного кино Док Сэвэдж: Человек из бронзы / Doc Savage: The Man of Bronze (1975) DVDRip | L1 Russian Mafia 1.46 GB
Показать сообщения:    

Текущее время: Сегодня 06:29

Часовой пояс: GMT



Вы не можете начинать темы
Вы не можете отвечать на сообщения
Вы не можете редактировать свои сообщения
Вы не можете удалять свои сообщения
Вы не можете голосовать в опросах
Вы не можете прикреплять файлы к сообщениям
Вы не можете скачивать файлы