Броненосец / Acorazado (Альваро Куриэль / Álvaro Curiel) [2010, Мексика, Испания, Франция, Комедия, DVDRip] MVO + Original Spa

 
Автор Сообщение

TorrentFilm ®

Пол:

Стаж: 2 года

Сообщений: 7741



Награды: Нет

Торрент-статистика

Создавать темы 25-Фев-2015 00:01

[Цитировать]

Броненосец / Acorazado
Страна: Мексика, Испания, Франция
Жанр: Комедия
Год выпуска: 2010
Продолжительность: 01:37:39
Перевод: Профессиональный (многоголосый закадровый)
Cубтитры: нет
Оригинальная аудиодорожка: испанский
Режиссер: Альваро Куриэль / Álvaro Curiel
В ролях: Сильверио Палашиос, Мариус Бегай, Сальвадор Санчес, Камилль Натта, Лаура Де Ла Уз, Энрике Молина
Описание: Бывший таксист Сильверио Паласиос решает воплотить в жизнь мечту — добраться вплавь до Майями в поисках Американской Мечты. Сильверио превращает свое старое такси в плот, который перевезет его к берегам Флориды. Пламенный оратор бессмысленных речей, Сильверио готовится к самой важной в его жизни речи — нужно убедить Американское правительство в том, что ему требуется политическое убежище, ведь он бежит от коммунизма и рискует своей жизнью в поисках свободы и лучших возможностей. Но порыв ветра превращает мечту Алакрана в новую реальность, он попадает на Кубу.
Сильверио придумывает отчаянную речь для Кубинского правительства, которое с опаской наблюдает за прибытием первого мексиканца, бегущего от капиталистической системы в поисках убежища в последнем бастионе социализма на континенте. Через несколько секунд Сильверио, вооруженный только своим умом, сумеет победить новые обстоятельства и воспользоваться многочисленными привилегиями системы, которая была не готова к приему этого мексиканца.
IMDb: 6.40 (111)
Сэмпл: https://yadi.sk/i/gFiaOknWeoGzu
Качество видео: DVDRip [найден готовый в сети]
Формат видео: AVI
Видео: 720x400 (1.80:1), 23.976 fps, XviD build 46 ~1668 kbps avg, 0.24 bit/pixel
Аудио: 48 kHz, AC3 Dolby Digital, 2/0 (L,R) ch, ~192 kbps rus
Аудио 2: 48 kHz, AC3 Dolby Digital, 2/0 (L,R) ch, ~256 kbps

MediaInfo

Броненосец - Acorazado.avi
Format : AVI
Format/Info : Audio Video Interleave
File size : 1.45 GiB
Duration : 1h 37mn
Overall bit rate : 2 131 Kbps
Movie name : Acorazado.DVDRip.XviD.AC3.Audio.Latino-plasma4x4
Director : plasma4x4
Writing application : VirtualDubMod 1.5.10.3 | www.virtualdub-fr.org || (build 2550/release)
Writing library : VirtualDubMod build 2550/release
Video
ID : 0
Format : MPEG-4 Visual
Format profile : Simple@L3
Format settings, BVOP : No
Format settings, QPel : No
Format settings, GMC : No warppoints
Format settings, Matrix : Default (H.263)
Codec ID : XVID
Codec ID/Hint : XviD
Duration : 1h 37mn
Bit rate : 1 669 Kbps
Width : 720 pixels
Height : 400 pixels
Display aspect ratio : 16:9
Frame rate : 23.976 fps
Color space : YUV
Chroma subsampling : 4:2:0
Bit depth : 8 bits
Scan type : Progressive
Compression mode : Lossy
Bits/(Pixel*Frame) : 0.242
Stream size : 1.14 GiB (78%)
Writing library : XviD 1.1.2 (UTC 2006-11-01)
Audio #1
ID : 1
Format : AC-3
Format/Info : Audio Coding 3
Mode extension : CM (complete main)
Format settings, Endianness : Big
Codec ID : 2000
Duration : 1h 37mn
Bit rate mode : Constant
Bit rate : 192 Kbps
Channel(s) : 2 channels
Channel positions : Front: L R
Sampling rate : 48.0 KHz
Bit depth : 16 bits
Compression mode : Lossy
Stream size : 134 MiB (9%)
Alignment : Split accross interleaves
Interleave, duration : 42 ms (1.00 video frame)
Interleave, preload duration : 500 ms
Language : Undefined
Audio #2
ID : 2
Format : AC-3
Format/Info : Audio Coding 3
Mode extension : CM (complete main)
Format settings, Endianness : Big
Codec ID : 2000
Duration : 1h 37mn
Bit rate mode : Constant
Bit rate : 256 Kbps
Channel(s) : 2 channels
Channel positions : Front: L R
Sampling rate : 48.0 KHz
Bit depth : 16 bits
Compression mode : Lossy
Stream size : 179 MiB (12%)
Alignment : Split accross interleaves
Interleave, duration : 42 ms (1.00 video frame)
Interleave, preload duration : 500 ms

Скриншоты


[Профиль] [ЛС]

Создавать темы 06-Авг-2015 22:42 (спустя 5 месяцев 9 дней)

Топик был перенесен из форума Фильмы до 2014 года в форум Фильмы до 2012 года
sergej644
 

Создавать темы 12-Июн-2016 07:54 (спустя 1 год 3 месяца)

Топик был перенесен из форума Фильмы 2011 года в форум Фильмы 2010 года
Russian Mafia
 
Кто просматривает тему:

Показать сообщения:    

Текущее время: Сегодня 16:58

Часовой пояс: GMT



Вы не можете начинать темы
Вы не можете отвечать на сообщения
Вы не можете редактировать свои сообщения
Вы не можете удалять свои сообщения
Вы не можете голосовать в опросах
Вы не можете прикреплять файлы к сообщениям
Вы не можете скачивать файлы