Бродяга высокогорных равнин / High Plains Drifter (1973) BDRip [720p] [40th Anniversary Edition]

 
Автор Сообщение

sergej644 ®

Пол:

Стаж: 4 года 11 месяцев

Сообщений: 6043

Откуда: Soviet Union



Награды: Нет

Торрент-статистика

Создавать темы 22-Ноя-2014 18:09

[Цитировать]

-Бродяга высокогорных равнин / High Plains Drifter (1973) BDRip [40th Anniversary Edition]«Welcome to Hell»- Год выпуска: 1973
Производство: USA / Universal Pictures, Malpaso Company
Жанр: вестерн
Режиссер: Клинт Иствуд
Актеры: Клинт Иствуд, Верна Блум, Марианна Хилл, Митч Райан, Джек Джинг, Стефан Гираш, Тед Хартли, Билли Кертис, Джеффри Льюис, Скотт Уолкер
Описание фильма: Человек без имени нанят жителями небольшого городка для защиты от троих бандитов, только что выпущенных из тюрьмы, где они сидели за преступления, совершенные как раз в этом городке...
Перевод: профессиональный (многоголосый закадровый), авторский (одноголосый закадровый)
Вид субтитров: вшитые отключаемые
Язык субтитров: русские, английские

Рейтинг MPAA: R, лицам до 17 лет обязательно присутствие взрослого
Дата мировой премьеры: 19 апреля 1973
Продолжительность: 01:45:01
Качество: BDRip (720p)
Видео: MPEG-4 AVC/H.264, 1280 x 542 (2,35:1), 9 499 kbps, 23.976 fps, 0.571 b/px
Аудио # 1: DTS, 6 ch, 1509 kbps, 48 000 Hz [многоголосый закадровый (SomeWax)]
Аудио # 2: DTS, 6 ch, 1509 kbps, 48 000 Hz [многоголосый закадровый (DVD-Магия)]
Аудио # 3: DTS, 6 ch, 1509 kbps, 48 000 Hz [одноголосый закадровый (А.Гаврилов)]
Аудио # 4: DTS, 6 ch, 1509 kbps, 48 000 Hz [оригинальный]

MediaInfo

Общее
Уникальный идентификатор                 : 217760335835887942965826499928569824697 (0xA3D31D7A6132CFFB92643468D4FE45B9)
Полное имя                               : D:\[1973] Бродяга высокогорных равнин [40th Anniversary Edition] [BDRip] [720p].mkv
Формат                                   : Matroska
Версия формата                           : Version 4 / Version 2
Размер файла                             : 11,6 Гбайт
Продолжительность                        : 1 ч. 45 м.
Общий поток                              : 15,9 Мбит/сек
Название фильма                          : Бродяга высокогорных равнин / High Plains Drifter [40th Anniversary Edition] (1973) BDRip [720p]
Дата кодирования                         : UTC 2014-11-22 09:23:13
Программа кодирования                    : mkvmerge v7.2.0 ('On Every Street') 32bit built on Sep 13 2014 15:42:11
Библиотека кодирования                   : libebml v1.3.0 + libmatroska v1.4.1
DURATION                                 : 01:37:41.690000000
NUMBER_OF_FRAMES                         : 904
NUMBER_OF_BYTES                          : 31786
_STATISTICS_WRITING_APP                  : mkvmerge v7.2.0 ('On Every Street') 32bit built on Sep 13 2014 15:42:11
_STATISTICS_WRITING_DATE_UTC             : 2014-11-22 09:23:13
_STATISTICS_TAGS                         : BPS DURATION NUMBER_OF_FRAMES NUMBER_OF_BYTES
Видео
Идентификатор                            : 1
Формат                                   : AVC
Формат/Информация                        : Advanced Video Codec
Профиль формата                          : [url=mailto:High@L4.1]High@L4.1[/url]
Параметр CABAC формата                   : Да
Параметр ReFrames формата                : 12 кадров
Идентификатор кодека                     : V_MPEG4/ISO/AVC
Продолжительность                        : 1 ч. 45 м.
Битрейт                                  : 9499 Кбит/сек
Ширина                                   : 1280 пикселей
Высота                                   : 542 пикселя
Соотношение сторон                       : 2,35:1
Режим частоты кадров                     : Постоянный
Частота кадров                           : 23,976 кадра/сек
Цветовое пространство                    : YUV
Субдискретизация насыщенности            : 4:2:0
Битовая глубина                          : 8 бит
Тип развёртки                            : Прогрессивная
Бит/(Пиксели*Кадры)                      : 0.571
Размер потока                            : 6,97 Гбайт (60%)
Заголовок                                : [1973] Бродяга высокогорных равнин / High Plains Drifter [40th Anniversary Edition] [BDRip] [720p]
Библиотека кодирования                   : x264 core 138 r2358kMod 9e941d1
Настройки программы                      : cabac=1 / ref=12 / deblock=1:-3:-3 / analyse=0x3:0x133 / me=umh / subme=10 / psy=1 / fade_compensate=0.00 / psy_rd=1.00:0.03 / mixed_ref=1 / me_range=32 / chroma_me=1 / trellis=2 / 8x8dct=1 / cqm=0 / deadzone=21,11 / fast_pskip=0 / chroma_qp_offset=-3 / threads=6 / lookahead_threads=1 / sliced_threads=0 / nr=0 / decimate=1 / interlaced=0 / bluray_compat=0 / constrained_intra=0 / bframes=8 / b_pyramid=2 / b_adapt=2 / b_bias=0 / direct=3 / weightb=1 / open_gop=0 / weightp=2 / keyint=250 / keyint_min=23 / scenecut=40 / intra_refresh=0 / rc=crf / mbtree=0 / crf=16.0000 / qcomp=0.70 / qpmin=0 / qpmax=69 / qpstep=4 / ip_ratio=1.40 / pb_ratio=1.20 / aq=1:0.60
Язык                                     : English
Default                                  : Да
Forced                                   : Нет
DURATION                                 : 01:45:01.546000000
NUMBER_OF_FRAMES                         : 151086
NUMBER_OF_BYTES                          : 7726992624
_STATISTICS_WRITING_APP                  : mkvmerge v7.2.0 ('On Every Street') 32bit built on Sep 13 2014 15:42:11
_STATISTICS_WRITING_DATE_UTC             : 2014-11-22 09:23:13
_STATISTICS_TAGS                         : BPS DURATION NUMBER_OF_FRAMES NUMBER_OF_BYTES
Аудио #1
Идентификатор                            : 2
Формат                                   : DTS
Формат/Информация                        : Digital Theater Systems
Режим                                    : 16
Параметр Endianness формата              : Big
Идентификатор кодека                     : A_DTS
Продолжительность                        : 1 ч. 45 м.
Вид битрейта                             : Постоянный
Битрейт                                  : 1509 Кбит/сек
Каналы                                   : 6 каналов
Расположение каналов                     : Front: L C R, Side: L R, LFE
Частота                                  : 48,0 КГц
Битовая глубина                          : 24 бит
Метод сжатия                             : С потерями
Размер потока                            : 1,11 Гбайт (10%)
Заголовок                                : Многоголосый закадровый (SomeWax)
Язык                                     : Russian
Default                                  : Нет
Forced                                   : Нет
Аудио #2
Идентификатор                            : 3
Формат                                   : DTS
Формат/Информация                        : Digital Theater Systems
Режим                                    : 16
Параметр Endianness формата              : Big
Идентификатор кодека                     : A_DTS
Продолжительность                        : 1 ч. 45 м.
Вид битрейта                             : Постоянный
Битрейт                                  : 1509 Кбит/сек
Каналы                                   : 6 каналов
Расположение каналов                     : Front: L C R, Side: L R, LFE
Частота                                  : 48,0 КГц
Битовая глубина                          : 24 бит
Метод сжатия                             : С потерями
Размер потока                            : 1,11 Гбайт (10%)
Заголовок                                : Многоголосый закадровый (DVD-Магия)
Язык                                     : Russian
Default                                  : Да
Forced                                   : Нет
Аудио #3
Идентификатор                            : 4
Формат                                   : DTS
Формат/Информация                        : Digital Theater Systems
Режим                                    : 16
Параметр Endianness формата              : Big
Идентификатор кодека                     : A_DTS
Продолжительность                        : 1 ч. 45 м.
Вид битрейта                             : Постоянный
Битрейт                                  : 1509 Кбит/сек
Каналы                                   : 6 каналов
Расположение каналов                     : Front: L C R, Side: L R, LFE
Частота                                  : 48,0 КГц
Битовая глубина                          : 24 бит
Метод сжатия                             : С потерями
Размер потока                            : 1,11 Гбайт (10%)
Заголовок                                : Одноголосый закадровый (А.Гаврилов)
Язык                                     : Russian
Default                                  : Нет
Forced                                   : Нет
Аудио #4
Идентификатор                            : 5
Формат                                   : DTS
Формат/Информация                        : Digital Theater Systems
Режим                                    : 16
Параметр Endianness формата              : Big
Идентификатор кодека                     : A_DTS
Продолжительность                        : 1 ч. 45 м.
Вид битрейта                             : Постоянный
Битрейт                                  : 1509 Кбит/сек
Каналы                                   : 6 каналов
Расположение каналов                     : Front: L C R, Side: L R, LFE
Частота                                  : 48,0 КГц
Битовая глубина                          : 24 бит
Метод сжатия                             : С потерями
Размер потока                            : 1,11 Гбайт (10%)
Заголовок                                : Оригинальный
Язык                                     : English
Default                                  : Нет
Forced                                   : Нет
Текст #1
Идентификатор                            : 6
Формат                                   : UTF-8
Идентификатор кодека                     : S_TEXT/UTF8
Идентификатор кодека/Информация          : UTF-8 Plain Text
Заголовок                                : Russian
Язык                                     : Russian
Default                                  : Нет
Forced                                   : Нет
Текст #2
Идентификатор                            : 7
Формат                                   : UTF-8
Идентификатор кодека                     : S_TEXT/UTF8
Идентификатор кодека/Информация          : UTF-8 Plain Text
Заголовок                                : English
Язык                                     : English
Default                                  : Нет
Forced                                   : Нет
Меню
00:00:00.000                             : en:Main Titles: The Stranger
00:07:12.182                             : en:Encounter At The Saloon
00:13:28.683                             : en:The Stranger Gets Acquainted
00:18:16.345                             : en:A Dream
00:23:10.264                             : en:A Hot Bath
00:26:28.504                             : en:The Town Council
00:29:45.409                             : en:Anything You Want
00:38:36.606                             : en:Volunteers
00:50:01.540                             : en:The Gunfighter Stays
00:55:40.921                             : en:Remembering
01:04:20.857                             : en:The Church Meeting
01:11:12.059                             : en:A New Room
01:18:41.717                             : en:The Ambush
01:26:55.001                             : en:Trouble Rides To Town
01:33:14.923                             : en:The Stranger Returns
01:43:03.803                             : en:The Name On The Grave (End Titles)

Интересные факты

*** Роль шерифа Джима Данкана сыграл каскадёр Бадди ван Хорн, долгое время являвшийся дублёром Иствуда.
*** По одной из версий, Человек без имени является неупокоившимся духом шерифа Данкана, вернувшимся ради отмщения. На это указывают некоторые диалоги, а также то, что в конце фильма незнакомец скачет и растворяется в плато, откуда и прибыл. В интервью для передачи Inside the Actors Studio, Иствуд заявлял что ранние версии сценария предполагали, что незнакомец являлся братом убитого шерифа. Сам он отдаёт предпочтение более сверхестественной интерпретации.
Скриншоты: -Время раздачи: 24/7 до 5-ти скачавших, затем по мере возможности
[Профиль] [ЛС]

BoxeR

Пол:

Стаж: 4 года 4 месяца

Сообщений: 7



Награды: Нет

Торрент-статистика

Создавать темы 23-Ноя-2014 10:26 (спустя 16 часов)

[Цитировать]

Фильм так фильм, стоит глянуть
[Профиль] [ЛС]
Показать сообщения:    

Текущее время: Сегодня 20:28

Часовой пояс: GMT



Вы не можете начинать темы
Вы не можете отвечать на сообщения
Вы не можете редактировать свои сообщения
Вы не можете удалять свои сообщения
Вы не можете голосовать в опросах
Вы не можете прикреплять файлы к сообщениям
Вы не можете скачивать файлы