[BBC] Британские времена года / The Great British Year [Серии 1-4 из 4х] (James Brickell / Джеймс Брикл) [2013, Научно-популярный, живая природа, HDTVRip] VO (CSS) [+ Original (Eng) + SUB RUS, SUB ENG]

 
Автор Сообщение

reversefile ®

Пол:

Стаж: 4 года 5 месяцев

Сообщений: 842

Откуда: ReverseFile.org



Награды: Нет

Торрент-статистика

Создавать темы 11-Авг-2014 06:20

[Цитировать]

Британские времена года / The Great British Year
Серии: 1-4 из 4х
Год выпуска: 2013
Страна: Великобритания, BBC
Жанр: Научно-популярный, живая природа
Продолжительность: ~00:59 x 4 серии
Перевод: Одноголосый закадровый
Автор(ы) перевода: CSS
Сэмпл: http://multi-up.com/963684
Оригинальная аудиодорожка: английский
Субтитры: Русские, Английские
Продюсер: James Brickell / Джеймс Брикл
Ведущий: Joseph Fiennes / Джозеф Файнс
Описание: Великобритания - островное государство, со всех сторон окруженное морями и круглый год продуваемое ветрами.
Нигде в мире больше нет столь уникальных условий, порождающих непредсказуемую, постоянно меняющуюся погоду, неповторимые Британские времена года...
BBC давно известна своими замечательными документальными фильмами. Новый проект телеканала, состоящий из четырех эпизодов, расскажет о временах года в Великобритании и о влиянии погоды на растительный и животный мир. Уникальные кадры, снятые при помощи новейших технологий, позволят увидеть моменты, ранее недоступные зрителю.
Каждая серия содержит небольшой "фильм о фильме" - рассказ о том, как снимались те или иные эпизоды.
Раздача в HD (720p): http://torrentfilm.net/forum/viewtopic.php?t=4723043

Список и краткое описание серий

1. Зима
Рассказ начинается с дня Нового Года. Британия в плену снега и льда. Замерзающая вода становится врагом всего живого. Различные существа справляются по-разному: белки используют хитрость, красные коршуны следуют за фермерскими плугами, чтобы извлечь червей из промерзшей земли. Но зима не продлится вечно, очень скоро зацветут подснежники, а на озере в Уилтшире чомги начнут свой танец...
2. Весна
Приход весны знаменует начало эпической гонки, в которой главное - правильный выбор времени. На деревьях набухают почки, по утрам слышны птичьи трели. Лазоревки строят гнезда, в океане морские коньки начинают брачный танец. Пока люди празднуют Пасху, самка горностая охотится на кроликов, чтобы накормить своих игривых детенышей. К началу лета птенцы кайр прыгают со скал. Молодняк готовится к самостоятельной жизни...
3. Лето
Пока люди отдыхают, у животных начинается всплеск активности. Больше Солнца означает больше пищи, многие животные специально прибывают на Британские острова, чтобы успеть к летнему изобилию. Чеглоки прилетают из Африки, чтобы застать бум насекомых, зрителю впервые дается возможность увидеть ночные проделки козодоя. Но долго ли продержится хорошая погода? Как только начнутся дожди, полчища голодных улиток будут атаковать сады.
4. Осень
Угасание Солнца снова меняет Британию, начинается время штормов и непредсказуемой погоды. Деревья сбрасывают листву, но прежде случается пышное красно-золотое празднество. Для животного мира сокращение длительности дня становится сигналом к началу подготовки к зиме. Кто-то запасает пищу, кто-то впадает в спячку. Для некоторых еще не закончилось время размножения. Пятнистые олени сражаются за самок, сёмга поднимается вверх по рекам, тюлени выкармливают потомство.
Качество видео: HDTVRip
Контейнер: AVI
Видео кодек: XviD
Аудио кодек: MP3
Видео: Xvid 720x400 25fps ~2300 Kbps ~0.33 bpf
Аудио RUS: MP3 48000Hz stereo 128kbps
Аудио ENG: MP3 48000Hz stereo 128kbps
Cубтитры RUS: Внешние, SoftSub (SRT) (В папке "SUB RUS")
Cубтитры ENG: Внешние, SoftSub (SRT) (В папке "SUB ENG")

MediaInfo

GeneralComplete name : F:\_Мои рипы\Video - Фильмы\_Документальные\BBC\The.Great.British.Year.hdtvrip.rus.vo(css).eng\The.Great.British.Year.e01.of.04.hdtvrip.rus.vo(css).eng.aviFormat : AVIFormat/Info : Audio Video InterleaveFile size : 1.09 GiBDuration : 58mn 54sOverall bit rate : 2 651 KbpsWriting application : VirtualDubMod 1.5.10.2 (build 2540/release)Writing library : VirtualDubMod build 2540/release
VideoID : 0Format : MPEG-4 VisualFormat profile : Advanced Simple@L5Format settings, BVOP : YesFormat settings, QPel : NoFormat settings, GMC : No warppointsFormat settings, Matrix : Default (H.263)Codec ID : XVIDCodec ID/Hint : XviDDuration : 58mn 54sBit rate : 2 381 KbpsWidth : 720 pixelsHeight : 400 pixelsDisplay aspect ratio : 16:9Frame rate : 25.000 fpsColor space : YUVChroma subsampling : 4:2:0Bit depth : 8 bitsScan type : ProgressiveCompression mode : LossyBits/(Pixel*Frame) : 0.331Stream size : 1 003 MiB (90%)Writing library : XviD 1.2.1 (UTC 2008-12-04)
Audio #1ID : 1Format : MPEG AudioFormat version : Version 1Format profile : Layer 3Mode : Joint stereoMode extension : MS StereoCodec ID : 55Codec ID/Hint : MP3Duration : 58mn 54sBit rate mode : ConstantBit rate : 128 KbpsChannel count : 2 channelsSampling rate : 48.0 KHzCompression mode : LossyStream size : 53.9 MiB (5%)Alignment : Aligned on interleavesInterleave, duration : 40 ms (1.00 video frame)Interleave, preload duration : 504 ms
Audio #2ID : 2Format : MPEG AudioFormat version : Version 1Format profile : Layer 3Mode : Joint stereoCodec ID : 55Codec ID/Hint : MP3Duration : 58mn 54sBit rate mode : ConstantBit rate : 128 KbpsChannel count : 2 channelsSampling rate : 48.0 KHzCompression mode : LossyStream size : 53.9 MiB (5%)Alignment : Aligned on interleavesInterleave, duration : 40 ms (1.00 video frame)Interleave, preload duration : 504 ms

Над релизом работали

Перевод: Евгений "UrbanVampire" Шаров, Анна "САВА" Марченко
Редактура: Анна "САВА" Марченко
Научный консультант: Дарья "Данька" Губкина
Закадровый текст: Евгений "UrbanVampire" Шаров
[Профиль] [ЛС]
Кто просматривает тему:

Показать сообщения:    

Текущее время: Сегодня 08:18

Часовой пояс: GMT



Вы не можете начинать темы
Вы не можете отвечать на сообщения
Вы не можете редактировать свои сообщения
Вы не можете удалять свои сообщения
Вы не можете голосовать в опросах
Вы не можете прикреплять файлы к сообщениям
Вы не можете скачивать файлы