Бриллиантовый полицейский / Blue Streak (1999) BDRip 720p

 
Автор Сообщение

sergej644 ®

Пол:

Стаж: 4 года 11 месяцев

Сообщений: 6043

Откуда: Soviet Union



Награды: Нет

Торрент-статистика

Создавать темы 01-Фев-2015 03:32

[Цитировать]

Страна: Германия, США
Производство: Blue Streak Productions, Columbia Pictures Corporation, Global Entertainment Productions GmbH & Company Medien KG, IndieProd Company Productions, Wintergreen Productions
Жанр: боевик, триллер, комедия, криминал
Год выпуска: 1999
Продолжительность: 01:34:06
Перевод: Профессиональный (полное дублирование), Профессиональный (многоголосый, закадровый) R5, ОРТ, Авторский (одноголосый закадровый) Санаев, Латышев
Оригинальная аудиодорожка: английский
Cубтитры: русский, английский
Режиссер: Лес Мэйфилд / Les Mayfield
В ролях:
Мартин Лоуренс /Martin Lawrence/, Люк Уилсон /Luke Wilson/, Дейв Чаппелл /Dave Chappelle/, Питер Грин /Peter Greene/, Никол Ари Паркер /Nicole Ari Parker/, Грем Беккел /Graham Beckel/...
Роли дублировали:
Вадим Гущин, Евгений Иванов, Станислав Концевич, Валерий Захарьев, Андрей Толубеев...
Описание:
Вор должен сидеть в тюрьме, а не работать в полиции. Создатели этого комедийного боевика с этим не согласны. Непревзойденный эксперт по сейфам и хранящимся в них драгоценностям Майлс Логан выходит из тюрьмы и сразу направляется … в полицию. Незадолго перед арестом он спрятал бесценный бриллиант в строящемся здании, которое вскоре превратилось в полицейский участок. Чтобы проникнуть на вражескую территорию и вернуть украденное, Майлс становится служителем закона и, как назло, ему приходится участвовать в настоящих расследованиях. За считанные дни неисправимый рецидивист становится руководителем целого подразделения! Ведь никто лучше вора не знает всех тонкостей криминального мира. Однако все это время преступное сообщество внимательно следило за карьерой бриллиантового полицейского. И приняло меры.- -Исходник: BDRemux 1080p
Тип релиза: BDRip 720p
Контейнер: MKV
Видео: 1280x692 (1,85:1), 23,976 fps, H264 ~ 4278 kbps avg, 0.201 bit/pixel
Аудио: 48 kHz, Dolby Digital AC3 5.1, 448 kbps DUB
Аудио: 48 kHz, Dolby Digital AC3 5.1, 448 kbps MVO R5
Аудио: 48 kHz, Dolby Digital AC3 5.1, 448 kbps AVO Санаев
Аудио: 48 kHz, Dolby Digital AC3 5.1, 384 kbps AVO Латышев
Аудио: 48 kHz, Dolby Digital AC3 2.0, 192 kbps MVO ОРТ
Аудио: 48 kHz, Dolby Digital AC3 5.1, 448 kbps Английский
Оригинальная навигация по главам: есть
Субтитры: SoftSub (srt)

MediaInfo

Общее
Полное имя : Brilliantovyy.policeyskiy.1999.BDRip720p_[New-team]_by_AVP_Studio.mkv
Формат : Matroska
Версия формата : Version 4 / Version 2
Размер файла : 4,37 Гбайт
Продолжительность : 1 ч. 34 м.
Общий поток : 6643 Кбит/сек
Название фильма : Brilliantovyy.policeyskiy.1999.BDRip720p_[New-team]_by_AVP_Studio
Дата кодирования : UTC 2014-08-17 09:18:17
Программа кодирования : mkvmerge v7.1.0 ('Good Love') 64bit built on Jul 27 2014 13:06:55
Библиотека кодирования : libebml v1.3.0 + libmatroska v1.4.1
DURATION : 01:27:59.106000000
NUMBER_OF_FRAMES : 1257
NUMBER_OF_BYTES : 40050
_STATISTICS_WRITING_APP : mkvmerge v7.1.0 ('Good Love') 64bit built on Jul 27 2014 13:06:55
_STATISTICS_WRITING_DATE_UTC : 2014-08-17 09:18:17
_STATISTICS_TAGS : BPS DURATION NUMBER_OF_FRAMES NUMBER_OF_BYTES
Видео
Идентификатор : 1
Формат : AVC
Формат/Информация : Advanced Video Codec
Профиль формата : High@L4.1
Параметр CABAC формата : Да
Параметр ReFrames формата : 6 кадров
Идентификатор кодека : V_MPEG4/ISO/AVC
Продолжительность : 1 ч. 34 м.
Битрейт : 4278 Кбит/сек
Ширина : 1280 пикселей
Высота : 692 пикселя
Соотношение сторон : 1,85:1
Режим частоты кадров : Постоянный
Частота кадров : 23,976 кадра/сек
Цветовое пространство : YUV
Субдискретизация насыщенности : 4:2:0
Битовая глубина : 8 бит
Тип развёртки : Прогрессивная
Бит/(Пиксели*Кадры) : 0.201
Размер потока : 2,72 Гбайт (62%)
Заголовок : Источник BDRemux
Библиотека кодирования : x264 core 138 r2356 a1d3d17
Настройки программы : cabac=1 / ref=6 / deblock=1:-3:-3 / analyse=0x3:0x133 / me=umh / subme=10 / psy=1 / psy_rd=1.00:0.05 / mixed_ref=1 / me_range=32 / chroma_me=1 / trellis=2 / 8x8dct=1 / cqm=0 / deadzone=21,11 / fast_pskip=0 / chroma_qp_offset=-3 / threads=6 / lookahead_threads=1 / sliced_threads=0 / nr=0 / decimate=0 / interlaced=0 / bluray_compat=0 / constrained_intra=0 / bframes=8 / b_pyramid=2 / b_adapt=2 / b_bias=0 / direct=3 / weightb=1 / open_gop=0 / weightp=2 / keyint=240 / keyint_min=24 / scenecut=40 / intra_refresh=0 / rc=2pass / mbtree=0 / bitrate=4278 / ratetol=1.0 / qcomp=0.60 / qpmin=0 / qpmax=69 / qpstep=4 / cplxblur=20.0 / qblur=0.5 / ip_ratio=1.40 / pb_ratio=1.30 / aq=1:1.00
Язык : Russian
Default : Да
Forced : Нет
Аудио #1
Идентификатор : 2
Формат : AC-3
Формат/Информация : Audio Coding 3
Расширение режима : CM (complete main)
Параметр Endianness формата : Big
Идентификатор кодека : A_AC3
Продолжительность : 1 ч. 34 м.
Вид битрейта : Постоянный
Битрейт : 448 Кбит/сек
Каналы : 6 каналов
Расположение каналов : Front: L C R, Side: L R, LFE
Частота : 48,0 КГц
Битовая глубина : 16 бит
Метод сжатия : С потерями
Размер потока : 302 Мбайт (7%)
Заголовок : Источник BDRemux Dolby Digital 5,1 448 kbps DUB
Язык : Russian
Default : Да
Forced : Нет
Аудио #2
Идентификатор : 3
Формат : AC-3
Формат/Информация : Audio Coding 3
Расширение режима : CM (complete main)
Параметр Endianness формата : Big
Идентификатор кодека : A_AC3
Продолжительность : 1 ч. 34 м.
Вид битрейта : Постоянный
Битрейт : 448 Кбит/сек
Каналы : 6 каналов
Расположение каналов : Front: L C R, Side: L R, LFE
Частота : 48,0 КГц
Битовая глубина : 16 бит
Метод сжатия : С потерями
Размер потока : 302 Мбайт (7%)
Заголовок : Источник BDRemux Dolby Digital 5,1 448 kbps MVO R5
Язык : Russian
Default : Нет
Forced : Нет
Аудио #3
Идентификатор : 4
Формат : AC-3
Формат/Информация : Audio Coding 3
Расширение режима : CM (complete main)
Параметр Endianness формата : Big
Идентификатор кодека : A_AC3
Продолжительность : 1 ч. 34 м.
Вид битрейта : Постоянный
Битрейт : 448 Кбит/сек
Каналы : 6 каналов
Расположение каналов : Front: L C R, Side: L R, LFE
Частота : 48,0 КГц
Битовая глубина : 16 бит
Метод сжатия : С потерями
Размер потока : 302 Мбайт (7%)
Заголовок : Источник BDRemux Dolby Digital 5,1 448 kbps MVO ОРТ
Язык : Russian
Default : Нет
Forced : Нет
Аудио #4
Идентификатор : 5
Формат : AC-3
Формат/Информация : Audio Coding 3
Расширение режима : CM (complete main)
Параметр Endianness формата : Big
Идентификатор кодека : A_AC3
Продолжительность : 1 ч. 34 м.
Вид битрейта : Постоянный
Битрейт : 384 Кбит/сек
Каналы : 6 каналов
Расположение каналов : Front: L C R, Side: L R, LFE
Частота : 48,0 КГц
Битовая глубина : 16 бит
Метод сжатия : С потерями
Размер потока : 259 Мбайт (6%)
Заголовок : Источник BDRemux Dolby Digital 5,1 384 kbps AVO Санаев
Язык : Russian
Default : Нет
Forced : Нет
Аудио #5
Идентификатор : 6
Формат : AC-3
Формат/Информация : Audio Coding 3
Расширение режима : CM (complete main)
Параметр Endianness формата : Big
Идентификатор кодека : A_AC3
Продолжительность : 1 ч. 34 м.
Вид битрейта : Постоянный
Битрейт : 192 Кбит/сек
Каналы : 2 канала
Расположение каналов : Front: L R
Частота : 48,0 КГц
Битовая глубина : 16 бит
Метод сжатия : С потерями
Размер потока : 129 Мбайт (3%)
Заголовок : Источник BDRemux Dolby Digital 2,0 192 kbps AVO Латышев
Язык : Russian
Default : Нет
Forced : Нет
Аудио #6
Идентификатор : 7
Формат : AC-3
Формат/Информация : Audio Coding 3
Расширение режима : CM (complete main)
Параметр Endianness формата : Big
Идентификатор кодека : A_AC3
Продолжительность : 1 ч. 34 м.
Вид битрейта : Постоянный
Битрейт : 448 Кбит/сек
Каналы : 6 каналов
Расположение каналов : Front: L C R, Side: L R, LFE
Частота : 48,0 КГц
Битовая глубина : 16 бит
Метод сжатия : С потерями
Размер потока : 302 Мбайт (7%)
Заголовок : Источник BDRemux Dolby Digital 5,1 448 kbps
Язык : English
Default : Нет
Forced : Нет
Текст #1
Идентификатор : 8
Формат : UTF-8
Идентификатор кодека : S_TEXT/UTF8
Идентификатор кодека/Информация : UTF-8 Plain Text
Заголовок : Источник BDRemux SoftSub (srt)
Язык : Russian
Default : Нет
Forced : Нет
Текст #2
Идентификатор : 9
Формат : UTF-8
Идентификатор кодека : S_TEXT/UTF8
Идентификатор кодека/Информация : UTF-8 Plain Text
Заголовок : Источник BDRemux SoftSub (srt)
Язык : English
Default : Нет
Forced : Нет
Меню
00:00:00.000 : en:Chapter 1
00:11:04.330 : en:Chapter 2
00:18:03.082 : en:Chapter 3
00:22:22.382 : en:Chapter 4
00:30:13.895 : en:Chapter 5
00:35:49.313 : en:Chapter 6
00:38:51.245 : en:Chapter 7
00:47:50.492 : en:Chapter 8
00:50:29.026 : en:Chapter 9
00:56:26.257 : en:Chapter 10
01:03:15.124 : en:Chapter 11
01:07:44.477 : en:Chapter 12
01:11:27.533 : en:Chapter 13
01:17:29.144 : en:Chapter 14
01:23:10.986 : en:Chapter 15
01:27:58.189 : en:Chapter 16

Скриншоты

[Профиль] [ЛС]
Кто просматривает тему:

Форум Тема Автор Размер
Фильмы 2014 года Блондинка в эфире / Walk of Shame (Стивен Брилл / Steven Brill) [2014, Комедия, BDRip-AVC] Dub + Original (Eng) + Sub (rus., eng.) painkiller 2.17 GB
Фильмы 2014 года Блондинка в эфире / Walk of Shame (Стивен Брилл / Steven Brill) [2014, США, комедия, HDRip] Dub bot 1.37 GB
Фильмы (HD Rips | 720p, 1080p) Блондинка в эфире / Walk of Shame (Стивен Брилл / Steven Brill) [2014, США, Комедия, приключения, BDRip 1080p] Dub (iTunes Rus) + Original (Eng) + Sub (Rus, Eng, Spa) bot 12.11 GB
Фильмы 2014 года Блондинка в эфире / Walk of Shame (Стивен Брилл / Steven Brill) [2014, США, комедия, приключения, BDRip] Dub reversefile 744 MB
Фильмы 2014 года Блондинка в эфире / Walk of Shame (Стивен Брилл / Steven Brill) [2014, США, Комедия, приключения, BDRip] Dub (BD RUS) + Original (Eng) + Subs (Rus, Eng) reversefile 1.75 GB
Фильмы 2014 года Блондинка в эфире / Walk of Shame (Стивен Брилл / Steven Brill) [2014, США, Комедия, приключения, HDRip-AVC] Dub (Line) bot 747 MB
Фильмы 2014 года Блондинка в эфире / Walk of Shame (Стивен Брилл / Steven Brill) [2014, США, Комедия, приключения, HDRip-AVC] Dub (line) + Sub (Eng) bot 1.46 GB
Фильмы (HD Rips | 720p, 1080p) Бриллиантовая рука (1968) BDRip 1080p sergej644 4.37 GB
Показать сообщения:    

Текущее время: Сегодня 08:12

Часовой пояс: GMT



Вы не можете начинать темы
Вы не можете отвечать на сообщения
Вы не можете редактировать свои сообщения
Вы не можете удалять свои сообщения
Вы не можете голосовать в опросах
Вы не можете прикреплять файлы к сообщениям
Вы не можете скачивать файлы