Бриллиантовая рука (1968) BDRip 1080p

 
Автор Сообщение

sergej644 ®

Пол:

Стаж: 4 года 11 месяцев

Сообщений: 6042

Откуда: Soviet Union



Награды: Нет

Торрент-статистика

Создавать темы 27-Янв-2015 04:22

[Цитировать]

Информация о фильме
Название: Бриллиантовая рука
Год выхода: 1968
Жанр: комедия, криминал, приключения, семейный
Режиссер: Леонид Гайдай
В ролях: Юрий Никулин, Андрей Миронов, Анатолий Папанов, Нина Гребешкова, Станислав Чекан, Владимир Гуляев, Нонна Мордюкова, Светлана Светличная, Роман Филиппов, Григорий Шпигель
О фильме: Кинороман из жизни контрабандистов с прологом и эпилогом. В южном городке орудует шайка «валютчиков», возглавляемая Шефом и его помощником Графом. Скромный советский служащий и примерный семьянин Семен Семеныч Горбунков отправляется в зарубежный круиз на теплоходе, на котором также плывет Граф, который должен забрать бриллианты в одном из восточных городов и провезти их в загипсованной руке. Но в силу недоразумения вместо жулика на условленном месте падает ничего не подозревающий Семен Семенович и драгоценный гипс накладывают ему. Вот тут-то все и начинается…

Выпущено: Мосфильм
Продолжительность: 01:38:21
Перевод: Оригинал
Файл
Кодек: x264
Качество: BDRip (источник: Blu-ray Disc)
Видео: 1920x816 (2,35:1), 23.976 fps, 5914 kbps
Звук: 48 kHz, AC-3, 6 ch, 448 kbps
Скачать: сэмплСкриншоты

MI

Общее
Уникальный идентификатор : 184837468390362917421707361193330882905 (0x8B0E66CA218349CE8E2608B8C4F63959)
Полное имя : Brilliantovaya.Ruka.1968.BDRip.1080p.Rus.mkv
Формат : Matroska
Версия формата : Version 2
Размер файла : 4,37 Гбайт
Продолжительность : 1 ч. 38 м.
Общий поток : 6363 Кбит/сек
Название фильма : Бриллиантовая рука (1968)
Дата кодирования : UTC 2011-12-25 10:12:33
Программа кодирования : mkvmerge v4.0.0 ('The Stars were mine') сборка от Jun 6 2010 16:18:42
Библиотека кодирования : libebml v1.0.0 + libmatroska v1.0.0
Видео
Идентификатор : 1
Формат : AVC
Формат/Информация : Advanced Video Codec
Профиль формата : High@L4.1
Параметр CABAC формата : Да
Параметр ReFrames формата : 5 кадров
Идентификатор кодека : V_MPEG4/ISO/AVC
Продолжительность : 1 ч. 38 м.
Битрейт : 5914 Кбит/сек
Ширина : 1920 пикселей
Высота : 816 пикселей
Соотношение сторон : 2,35:1
Частота кадров : 23,976 кадра/сек
Цветовое пространство : YUV
Субдискретизация насыщенности : 4:2:0
Битовая глубина : 8 бит
Тип развёртки : Прогрессивная
Бит/(Пиксели*Кадры) : 0.157
Размер потока : 3,98 Гбайт (91%)
Заголовок : Release by AlexKa
Библиотека кодирования : x264 core 120 r2120 0c7dab9
Настройки программы : cabac=1 / ref=5 / deblock=1:0:0 / analyse=0x3:0x133 / me=umh / subme=10 / psy=1 / psy_rd=1.00:0.10 / mixed_ref=1 / me_range=32 / chroma_me=1 / trellis=2 / 8x8dct=1 / cqm=0 / deadzone=21,11 / fast_pskip=0 / chroma_qp_offset=-3 / threads=12 / sliced_threads=0 / nr=0 / decimate=1 / interlaced=0 / bluray_compat=0 / constrained_intra=0 / bframes=5 / b_pyramid=2 / b_adapt=2 / b_bias=0 / direct=3 / weightb=1 / open_gop=0 / weightp=2 / keyint=240 / keyint_min=24 / scenecut=40 / intra_refresh=0 / rc_lookahead=60 / rc=2pass / mbtree=1 / bitrate=5914 / ratetol=1.0 / qcomp=0.60 / qpmin=0 / qpmax=69 / qpstep=4 / cplxblur=20.0 / qblur=0.5 / ip_ratio=1.40 / aq=1:1.00
Язык : Russian
Аудио
Идентификатор : 2
Формат : AC-3
Формат/Информация : Audio Coding 3
Расширение режима : CM (complete main)
Идентификатор кодека : A_AC3
Продолжительность : 1 ч. 38 м.
Вид битрейта : Постоянный
Битрейт : 448 Кбит/сек
Каналы : 6 каналов
Расположение каналов : Front: L C R, Side: L R, LFE
Частота : 48,0 КГц
Битовая глубина : 16 бит
Метод сжатия : С потерями
Размер потока : 315 Мбайт (7%)
Язык : Russian
Меню
00:00:00.000 : :Chapter 01
00:04:43.825 : :Chapter 02
00:08:27.548 : :Chapter 03
00:11:36.987 : :Chapter 04
00:15:58.332 : :Chapter 05
00:22:14.916 : :Chapter 06
00:28:26.705 : :Chapter 07
00:34:49.545 : :Chapter 08
00:39:05.343 : :Chapter 09
00:43:30.566 : :Chapter 10
00:49:45.565 : :Chapter 11
00:54:14.334 : :Chapter 12
00:58:53.571 : :Chapter 13
01:04:20.815 : :Chapter 14
01:10:20.341 : :Chapter 15
01:14:34.678 : :Chapter 16
01:22:27.025 : :Chapter 17
01:30:11.447 : :Chapter 18
01:33:01.450 : :Chapter 19
01:36:52.681 : :Chapter 20
01:38:20.019 : :Chapter 21
[Профиль] [ЛС]
Кто просматривает тему:

Форум Тема Автор Размер
Фильмы 2014 года Блондинка в эфире / Walk of Shame (Стивен Брилл / Steven Brill) [2014, Комедия, BDRip-AVC] Dub + Original (Eng) + Sub (rus., eng.) painkiller 2.17 GB
Фильмы 2014 года Блондинка в эфире / Walk of Shame (Стивен Брилл / Steven Brill) [2014, США, комедия, HDRip] Dub bot 1.37 GB
Фильмы (HD Rips | 720p, 1080p) Блондинка в эфире / Walk of Shame (Стивен Брилл / Steven Brill) [2014, США, Комедия, приключения, BDRip 1080p] Dub (iTunes Rus) + Original (Eng) + Sub (Rus, Eng, Spa) bot 12.11 GB
Фильмы 2014 года Блондинка в эфире / Walk of Shame (Стивен Брилл / Steven Brill) [2014, США, комедия, приключения, BDRip] Dub reversefile 744 MB
Фильмы 2014 года Блондинка в эфире / Walk of Shame (Стивен Брилл / Steven Brill) [2014, США, Комедия, приключения, BDRip] Dub (BD RUS) + Original (Eng) + Subs (Rus, Eng) reversefile 1.75 GB
Фильмы 2014 года Блондинка в эфире / Walk of Shame (Стивен Брилл / Steven Brill) [2014, США, Комедия, приключения, HDRip-AVC] Dub (Line) bot 747 MB
Фильмы 2014 года Блондинка в эфире / Walk of Shame (Стивен Брилл / Steven Brill) [2014, США, Комедия, приключения, HDRip-AVC] Dub (line) + Sub (Eng) bot 1.46 GB
Кино СССР Бриллиантовая рука (Леонид Гайдай) [1968, иронический детектив, DVDRip] Zithylord 4.29 GB
Показать сообщения:    

Текущее время: Сегодня 16:20

Часовой пояс: GMT



Вы не можете начинать темы
Вы не можете отвечать на сообщения
Вы не можете редактировать свои сообщения
Вы не можете удалять свои сообщения
Вы не можете голосовать в опросах
Вы не можете прикреплять файлы к сообщениям
Вы не можете скачивать файлы