Бригада. Наследник / Бригада 2 (Денис Алексеев) [2012 г., Россия, боевик, криминал, BDRip 1080p]

 
Автор Сообщение

TorrentFilm ®

Пол:

Стаж: 2 года

Сообщений: 7741



Награды: Нет

Торрент-статистика

Создавать темы 02-Янв-2016 00:02

[Цитировать]

Бригада. Наследник / Бригада-2«Продолжение легендарной саги»-- Жанр: боевик, криминал
Год выпуска: 2012
Продолжительность: 01:46:11
Перевод: Не требуется
Субтитры: Нет--Режиссер: Денис Алексеев
В ролях: Иван Макаревич, Екатерина Гусева, Кирилл Нагиев, Юрий Чурсин, Анна Попова, Александр Иншаков, Игорь Жижикин, Владислав Дёмин, Валерий Золотухин, Наталья Гуслистая, Сергей Бадюк, Михаил Дорожкин, Оскар Кучера, Алексей Малашкин, Светлана Фролова, Яков Плоткин, Пётр Гольцов, Алексей Петрухин, Георгий Пахаленко--Описание: Фильм является идейным продолжением жизни героев телесериала «Бригада». Однако, акцент смещен в историю сына Александра Белова — Ивана. Это кино о современной России. О том, что у всех на устах: политике, коррупции, цинизме крупного бизнеса и спецслужб. О новом поколении, которое, узнав правду о нечистом бизнесе родителей, не идет по их стопам, а выбирает новый путь. Для них дороги понятия чести, любви и Родины. Герой, комфортно живший за границей, тем не менее, выбирает Россию (в отличие от сериала) и остается жить в ней, надеясь привнести эти идеалы в жизнь своих близких и страны в целом.--[url=http://narod.ru/disk/65371369001.609c7944105010d30e0a44262ffb3d57/Brigada_2.2012.1080p.Bluray.Rus%20(1)-002.mkv.html] [/url] --Качество видео: BDRip 1080p
Формат видео: MKV
Видео: 1920x816 at 24.000 fps (True24p), x264@L4.1, 2pass, ~11500 kbps avg
Аудио: 48 kHz/16-bit, DTS, 3/2 (L,C,R,l,r) + LFE ch, ~1509.00 kbps avg
-
-

MediaInfo

Общее
Уникальный идентификатор : 250314050118033596306989565622769826778 (0xBC50BB82A6804CAF957B9672762A3BDA)
Полное имя : A:\Музыка\Brigada_2.2012.1080p.Bluray.Rus.mkv
Формат : Matroska
Версия формата : Version 2
Размер файла : 9,65 Гбайт
Продолжительность : 1 ч. 46 м.
Общий поток : 13,0 Мбит/сек
Название фильма : Brigada 2 (2012)
Дата кодирования : UTC 2012-12-28 14:02:01
Программа кодирования : mkvmerge v5.6.0 ('Kenya Kane') built on May 27 2012 16:44:04
Библиотека кодирования : libebml v1.2.3 + libmatroska v1.3.0
Видео
Идентификатор : 1
Формат : AVC
Формат/Информация : Advanced Video Codec
Профиль формата : High@L4.1
Параметр CABAC формата : Да
Параметр ReFrames формата : 5 кадров
Идентификатор кодека : V_MPEG4/ISO/AVC
Продолжительность : 1 ч. 46 м.
Битрейт : 11,5 Мбит/сек
Ширина : 1920 пикселей
Высота : 816 пикселей
Соотношение сторон : 2,35:1
Режим частоты кадров : Постоянный
Частота кадров : 24,000 кадра/сек
Цветовое пространство : YUV
Субдискретизация насыщенности : 4:2:0
Битовая глубина : 8 бит
Тип развёртки : Прогрессивная
Бит/(Пиксели*Кадры) : 0.306
Размер потока : 8,34 Гбайт (86%)
Заголовок : Brigada_2.2012.1080p.Bluray.Rus
Библиотека кодирования : x264 core 129 r2230 1cffe9f
Настройки программы : cabac=1 / ref=5 / deblock=1:-3:-3 / analyse=0x3:0x133 / me=umh / subme=11 / psy=1 / psy_rd=1.00:0.00 / mixed_ref=1 / me_range=32 / chroma_me=1 / trellis=2 / 8x8dct=1 / cqm=0 / deadzone=21,11 / fast_pskip=0 / chroma_qp_offset=-2 / threads=12 / lookahead_threads=2 / sliced_threads=0 / nr=0 / decimate=1 / interlaced=0 / bluray_compat=0 / constrained_intra=0 / bframes=7 / b_pyramid=2 / b_adapt=2 / b_bias=0 / direct=3 / weightb=1 / open_gop=0 / weightp=2 / keyint=250 / keyint_min=23 / scenecut=40 / intra_refresh=0 / rc_lookahead=60 / rc=2pass / mbtree=0 / bitrate=11500 / ratetol=1.0 / qcomp=0.60 / qpmin=0 / qpmax=69 / qpstep=4 / cplxblur=20.0 / qblur=0.5 / vbv_maxrate=50000 / vbv_bufsize=62500 / nal_hrd=none / ip_ratio=1.40 / pb_ratio=1.30 / aq=1:0.80
Язык : Russian
Default : Да
Forced : Да
Аудио
Идентификатор : 2
Формат : DTS
Формат/Информация : Digital Theater Systems
Режим : 16
Параметр Endianness формата : Big
Идентификатор кодека : A_DTS
Продолжительность : 1 ч. 46 м.
Вид битрейта : Постоянный
Битрейт : 1509 Кбит/сек
Каналы : 6 каналов
Расположение каналов : Front: L C R, Side: L R, LFE
Частота : 48,0 КГц
Битовая глубина : 16 бит
Метод сжатия : С потерями
Размер потока : 1,12 Гбайт (12%)
Заголовок : DTS 5.1 @ 1509 kbps - Original [Core DTS-HD MA]
Язык : Russian
Default : Да
Forced : Да
Меню
00:00:00.000 : :Chapter 1
00:08:31.583 : :Chapter 2
00:12:24.125 : :Chapter 3
00:17:08.375 : :Chapter 4
00:25:08.416 : :Chapter 5
00:30:55.833 : :Chapter 6
00:42:03.000 : :Chapter 7
00:54:59.625 : :Chapter 8
01:03:32.333 : :Chapter 9
01:11:20.125 : :Chapter 10
01:17:54.916 : :Chapter 11
01:22:47.458 : :Chapter 12
01:27:43.333 : :Chapter 13
01:36:43.125 : :Chapter 14
01:42:18.041 : :Chapter 15

Скриншоты




[Профиль] [ЛС]
Кто просматривает тему:

Форум Тема Автор Размер
Отечественные cериалы Бригада [01-15 из 15] (Алексей Сидоров)[2002, драма, криминал, DVDRip] | 60 fps sergej644 56.31 GB
Фильмы (HD DVD, Blu-ray и BDRemux) Бригада. Наследник / Бригада 2 (Денис Алексеев) [2012, Россия, боевик, криминал, BDRip 720p] painkiller 4.96 GB
Фильмы (HD DVD, Blu-ray и BDRemux) Бригада: Наследник (Денис Алексеев) [2012, Россия, боевик, криминал, Blu-ray Disc 1080p] painkiller 17.43 GB
Фильмы (DVD 5/9) Бригада: Наследник (Денис Алексеев) [2012, Россия, боевик, криминал, DVD5] R5 Original Rus TorrentFilm 4.36 GB
Фильмы (DVD 5/9) Бригада: Наследник (Денис Алексеев) [2012, Россия, боевик, криминал, DVD9] R5 Sub Ukr + Original Rus TorrentFilm 6.11 GB
Rock Бригадный Подряд - Реинкарнация 2 (2016) MP3 достали все 60 MB
Фантастика и фэнтези Война старика 2. Бригады призраков (Джон Скальци) [2015, Фантастика, аудиокнига, MP3, 128 kbps, Назаренко Михаил] Magnat 605 MB
Фильмы (HD Rips | 720p, 1080p) Ночная бригада / The Night Crew (2015) BDRip 1080p | iTunes достали все 6.79 GB
Показать сообщения:    

Текущее время: Сегодня 13:50

Часовой пояс: GMT



Вы не можете начинать темы
Вы не можете отвечать на сообщения
Вы не можете редактировать свои сообщения
Вы не можете удалять свои сообщения
Вы не можете голосовать в опросах
Вы не можете прикреплять файлы к сообщениям
Вы не можете скачивать файлы