Брестская крепость (2010) BDRip 1080p

 
Автор Сообщение

sergej644 ®

Пол:

Стаж: 4 года 11 месяцев

Сообщений: 6041

Откуда: Soviet Union



Награды: Нет

Торрент-статистика

Создавать темы 27-Янв-2015 04:47

[Цитировать]

Информация о фильме
Название: Брестская крепость
Год выхода: 2010
Жанр: военная драма
Режиссер: Александр Котт
В ролях: Евгений Цыганов, Андрей Мерзликин, Павел Деревянко, Александр Коршунов, Юрий Анпилогов, Кирилл Болтаев, Анатолий Кот, Илья Мозговой, Яна Есипович, Дмитрий Куличков...
О фильме:
Фильм рассказывает о героической обороне Брестской крепости, которая приняла на себя первый удар фашистских захватчиков 22 июня 1941 года.
С документальной точностью описаны события, происходившие в первые дни обороны. Много лет спустя, ветеран Великой Отечественной войны Александр Акимов снова и снова возвращается в своих воспоминаниях в то время, когда он - пятнадцатилетний подросток. Саша Акимов, беззаветно влюбленный в девушку Веру, оказался в самом центре кровавых событий войны.
Три главных очага сопротивления, возглавляемых командиром полка Петром Михайловичем Гавриловым (Александр Коршунов), комиссаром Ефимом Моисеевичем Фоминым (Павел Деревянко) и начальником 9-й погранзаставы Андреем Митрофановичем Кижеватовым (Андрей Мерзликин) связаны одной линией - историей Сашки Акимова (Алеша Копашов). Именно его глазами мы видим события, происходящие в картине. Прототипом Сашки был пятнадцатилетний Петя Клыпа, один из немногих выживших защитников Брестской крепости.
"Брестская крепость" фильм не только о войне, человеческие отношения главных героев являются очень важной его частью. Главная же идея картины лучше всего сформулирована в надписи, обнаруженной на стене одного из казематов: "Умираю, но не сдаюсь…

Страна: Россия, Беларусь
Продолжительность: 02:18:15
Перевод: Оригинал
Файл
Кодек: H264
Качество: BDRip 1080p
Видео: 1920x816, 4073 Kbps, 23,976 fps
Звук: 48 kHz, AC3, 6c, 448 kbps
Субтитры: Русские, Английские
Семпл

MI

Общее
Формат : Matroska
Версия формата : Version 2
Размер файла : 4,36 Гбайт
Продолжительность : 2 ч. 18 м.
Общий поток : 4519 Кбит/сек
Название фильма : Брестская крепость (2010) BDRip 1080p от Dimok
Дата кодирования : UTC 2012-04-12 06:50:51
Программа кодирования : mkvmerge v5.4.0 ('Piper') built on Mar 10 2012 13:34:39
Библиотека кодирования : libebml v1.2.3 + libmatroska v1.3.0
Attachment : Yes
Видео
Идентификатор : 1
Формат : AVC
Формат/Информация : Advanced Video Codec
Профиль формата : High@L4.1
Параметр CABAC формата : Да
Параметр ReFrames формата : 5 кадров
Идентификатор кодека : V_MPEG4/ISO/AVC
Продолжительность : 2 ч. 18 м.
Битрейт : 4073 Кбит/сек
Ширина : 1920 пикселей
Высота : 816 пикселей
Соотношение сторон : 2,35:1
Частота кадров : 23,976 кадра/сек
Цветовое пространство : YUV
Субдискретизация насыщенности : 4:2:0
Битовая глубина : 8 бит
Тип развёртки : Прогрессивная
Бит/(Пиксели*Кадры) : 0.108
Размер потока : 3,85 Гбайт (88%)
Библиотека кодирования : x264 core 122 r2184 5c85e0a
Настройки программы : cabac=1 / ref=5 / deblock=1:0:0 / analyse=0x3:0x133 / me=umh / subme=10 / psy=1 / psy_rd=1.00:0.10 / mixed_ref=1 / me_range=32 / chroma_me=1 / trellis=2 / 8x8dct=1 / cqm=0 / deadzone=21,11 / fast_pskip=0 / chroma_qp_offset=-3 / threads=6 / sliced_threads=0 / nr=0 / decimate=1 / interlaced=0 / bluray_compat=0 / constrained_intra=0 / bframes=6 / b_pyramid=2 / b_adapt=2 / b_bias=0 / direct=3 / weightb=1 / open_gop=0 / weightp=2 / keyint=240 / keyint_min=24 / scenecut=40 / intra_refresh=0 / rc_lookahead=66 / rc=2pass / mbtree=1 / bitrate=4073 / ratetol=1.0 / qcomp=0.64 / qpmin=0 / qpmax=69 / qpstep=4 / cplxblur=20.0 / qblur=0.5 / ip_ratio=1.40 / aq=1:1.00
Язык : Russian
Default : Да
Forced : Нет
Аудио
Идентификатор : 2
Формат : AC-3
Формат/Информация : Audio Coding 3
Расширение режима : CM (complete main)
Параметр Endianness формата : Big
Идентификатор кодека : A_AC3
Продолжительность : 2 ч. 18 м.
Вид битрейта : Постоянный
Битрейт : 448 Кбит/сек
Каналы : 6 каналов
Расположение каналов : Front: L C R, Side: L R, LFE
Частота : 48,0 КГц
Битовая глубина : 16 бит
Метод сжатия : С потерями
Размер потока : 443 Мбайт (10%)
Заголовок : Оригинал
Язык : Russian
Default : Да
Forced : Нет
Текст #1
Идентификатор : 3
Формат : UTF-8
Идентификатор кодека : S_TEXT/UTF8
Идентификатор кодека/Информация : UTF-8 Plain Text
Язык : Russian
Default : Нет
Forced : Нет
Текст #2
Идентификатор : 4
Формат : UTF-8
Идентификатор кодека : S_TEXT/UTF8
Идентификатор кодека/Информация : UTF-8 Plain Text
Язык : English
Default : Нет
Forced : Нет
Меню
00:00:00.000 : ru:1
00:11:02.542 : ru:2
00:21:47.417 : ru:3
00:31:26.250 : ru:4
00:40:47.250 : ru:5
00:52:59.584 : ru:6
01:04:19.125 : ru:7
01:20:50.709 : ru:8
01:29:47.084 : ru:9
01:42:03.000 : ru:10
01:50:58.375 : ru:11
01:59:30.750 : ru:12
[Профиль] [ЛС]
Показать сообщения:    

Текущее время: Сегодня 08:32

Часовой пояс: GMT



Вы не можете начинать темы
Вы не можете отвечать на сообщения
Вы не можете редактировать свои сообщения
Вы не можете удалять свои сообщения
Вы не можете голосовать в опросах
Вы не можете прикреплять файлы к сообщениям
Вы не можете скачивать файлы