Бременские музыканты / Die Bremer Stadtmusikanten (Дирк Регель / Dirk Regel) [2009, Германия, детский, семейный, сказка, HDTVRip] MVO (ТВЦ) + Dub (Карусель) + Original Ger

 
Автор Сообщение

TorrentFilm ®

Пол:

Стаж: 1 год 11 месяцев

Сообщений: 7741



Награды: Нет

Торрент-статистика

Создавать темы 12-Янв-2016 00:08

[Цитировать]

Бременские музыканты / Die Bremer Stadtmusikanten
Страна: Германия
Жанр: детский, семейный, сказка
Год выпуска: 2009
Продолжительность: 00:58:19
Перевод: Профессиональный (многоголосый закадровый) ТВЦ
Перевод 2: Профессиональный (дублированный) по заказу ЗАО «Первый канал. Всемирная сеть»
Cубтитры: нет
Оригинальная аудиодорожка: немецкий
Режиссер: Дирк Регель / Dirk Regel
В ролях: Петер Штрибек, Харальд Шмидт, Ханнелоре Эльснер, Бастиан Пастевка, Флориан Мартенс; Гезине Цукровски, Анна Фишер, Йоханнес Цирнер, Михаэль Лот
Описание: Однажды осёл, кот, собака и петух, чтобы избежать попадания в суп, сбегают с фермы своих хозяев. Они хотят стать бродячими музыкантами и прославиться на весь мир. В то же время из дома родителей исчезает дочь, которая не желает выходить замуж за немилого, но богатого соседа. Вслед за непокорной девицей отправляется влюбленный в нее слуга. По дороге в Бремен животные встречают молодых влюбленных, веселая компания объединяется и направляется на ночёвку в лес. Там они сталкиваются с шайкой разбойников...
Доп. информация: Рип с канала 1 HD. Из видеоряда удален логотип и другие посторонние элементы. По обоим русским каналам показали урезанные версии, хорошо еще что порезали в разных местах. Так что в обоих дорожках сделаны вставки друг из друга.
Сэмпл: http://multi-up.com/1083208
Качество видео: HDTVRip
Формат видео: AVI
Видео: MPEG4, XviD, 720x400 (16:9), 25.000 fps, 2 061 Kbps (0.286 bit/pixel)
Аудио: AC-3, 48.0 KHz, 2 ch, 192 Kbps, CBR - mvo
Аудио 2: AC-3, 48.0 KHz, 2 ch, 192 Kbps, CBR - dub
Аудио 3: AC-3, 48.0 KHz, 2 ch, 224 Kbps, CBR - ger

MediaInfo

бщее
Полное имя : N:\Бременские музыканты.avi
Формат : AVI
Формат/Информация : Audio Video Interleave
Размер файла : 1,10 Гбайт
Продолжительность : 58 м.
Общий поток : 2688 Кбит/сек
Название фильма : Бременские музыканты / Die Bremer Stadtmusikanten (2009)
Программа кодирования : VirtualDubMod 1.5.10.2 (build 2540/release)
Библиотека кодирования : VirtualDubMod build 2540/release
Авторское право : miha2154
Видео
Идентификатор : 0
Формат : MPEG-4 Visual
Профиль формата : Advanced Simple@L5
Параметр BVOP формата : 1
Параметр QPel формата : Нет
Параметр GMC формата : Без точки перехода
Параметр матрицы формата : Выборочная
Идентификатор кодека : XVID
Идентификатор кодека/Подсказка : XviD
Продолжительность : 58 м.
Битрейт : 2061 Кбит/сек
Ширина : 720 пикселей
Высота : 400 пикселей
Соотношение сторон : 16:9
Частота кадров : 25,000 кадров/сек
Цветовое пространство : YUV
Субдискретизация насыщенности : 4:2:0
Битовая глубина : 8 бит
Тип развёртки : Прогрессивная
Метод сжатия : С потерями
Бит/(Пиксели*Кадры) : 0.286
Размер потока : 860 Мбайт (77%)
Библиотека кодирования : XviD 65
Аудио #1
Идентификатор : 1
Формат : AC-3
Формат/Информация : Audio Coding 3
Расширение режима : CM (complete main)
Параметр Endianness формата : Big
Идентификатор кодека : 2000
Продолжительность : 58 м.
Вид битрейта : Постоянный
Битрейт : 192 Кбит/сек
Каналы : 2 канала
Расположение каналов : Front: L R
Частота : 48,0 КГц
Частота кадров : 31,250 кадров/сек (1536 spf)
Метод сжатия : С потерями
Размер потока : 80,1 Мбайт (7%)
Выравнивание : Разделение по промежуткам
Продолжительность промежутка : 40 мс. (1,00 видеокадр)
Время предзагрузки промежутка : 500 мс.
Заголовок : Профессиональный (многоголосый закадровый) ТВЦ
Аудио #2
Идентификатор : 2
Формат : AC-3
Формат/Информация : Audio Coding 3
Расширение режима : CM (complete main)
Параметр Endianness формата : Big
Идентификатор кодека : 2000
Продолжительность : 58 м.
Вид битрейта : Постоянный
Битрейт : 192 Кбит/сек
Каналы : 2 канала
Расположение каналов : Front: L R
Частота : 48,0 КГц
Частота кадров : 31,250 кадров/сек (1536 spf)
Метод сжатия : С потерями
Размер потока : 80,1 Мбайт (7%)
Выравнивание : Разделение по промежуткам
Продолжительность промежутка : 40 мс. (1,00 видеокадр)
Время предзагрузки промежутка : 500 мс.
Заголовок : Профессиональный (полное дублирование) Карусель
Аудио #3
Идентификатор : 3
Формат : AC-3
Формат/Информация : Audio Coding 3
Расширение режима : CM (complete main)
Параметр Endianness формата : Big
Идентификатор кодека : 2000
Продолжительность : 58 м.
Вид битрейта : Постоянный
Битрейт : 224 Кбит/сек
Каналы : 2 канала
Расположение каналов : Front: L R
Частота : 48,0 КГц
Частота кадров : 31,250 кадров/сек (1536 spf)
Метод сжатия : С потерями
Размер потока : 93,4 Мбайт (8%)
Выравнивание : Разделение по промежуткам
Продолжительность промежутка : 40 мс. (1,00 видеокадр)
Время предзагрузки промежутка : 500 мс.

Скриншоты


[Профиль] [ЛС]

Создавать темы 12-Июн-2016 07:56 (спустя 5 месяцев)

Топик был перенесен из форума Фильмы 2011 года в форум Фильмы 2009 года
Russian Mafia
 
Показать сообщения:    

Текущее время: Сегодня 02:38

Часовой пояс: GMT



Вы не можете начинать темы
Вы не можете отвечать на сообщения
Вы не можете редактировать свои сообщения
Вы не можете удалять свои сообщения
Вы не можете голосовать в опросах
Вы не можете прикреплять файлы к сообщениям
Вы не можете скачивать файлы