Брат 2 (2000) WEB-DL 1080p

 
Автор Сообщение

достали все ®

Пол:

Стаж: 1 год 8 месяцев

Сообщений: 6591



Награды: 12 (Подробнее)

Top Releaser 4 (Количество: 1) Mega Seeder 2 (Количество: 1) Mega Seeder 4 (Количество: 1)
Торрент-статистика

Создавать темы 19-Дек-2015 23:13

[Цитировать]

Брат 2
«Данила возвращается!»
-Год выпуска: 2000
Страна: Россия , США
Производство: Кинокомпания CTB
Жанр: Боевик, криминал
Режиссёр: Алексей Балабанов
В ролях: Сергей Бодров мл., Виктор Сухоруков, Сергей Маковецкий, Ирина Салтыкова, Кирилл Пирогов, Александр Дьяченко, Дарья Юргенс, Александр Наумов, Александр Карамнов, Гэри Хьюстон
Перевод: Оригинал
Субтитры: Нет
Описание: Участвуя в программе на телевидении, Данила Багров встречает своих друзей по Чечне. Одного из них внезапно убивают. Данила знает, что у того были неприятности из-за брата-хоккеиста в Америке. Данила должен разобраться. Он вылетает в Америку и для компании берёт с собой брата. Теперь его фотография ходит по рукам русской и американской мафии. Новоявленные «Аль Капоне» понимают, что нарвались на профессионала…

Знаете ли вы, что...

• Во время съемок фильма американские пиротехники не взялись за создание самопала. Тогда с этой работой справился оператор Сергей Астахов, который за час изготовил его из латунной трубки, железных скрепок и марганцевых опилок.
• Голос нью-йоркского таксиста, похожий на голос Владимира Жириновского — это голос Юрия Стоянова, известного ведущего юмористической программы «Городок».
• Сюжет популярной американской игры Grand Theft Auto 4 имеет некоторые сходства с фильмом. Главный герой игры — выходец из бывшего соцлагеря — Нико Белич приезжает в Либерти Сити, прототип Нью Йорка, к своему брату в поисках лучшей жизни. Однако вместо обещанной беззаботной и лёгкой жизни, которую обещал ему брат в Америке, Нико приходится столкнуться с криминальным миром и также спасти своего брата от его врагов. У двоюродного брата Нико автомобиль очень похож на тот, что был у Виктора Багрова в первой части фильма. Также совпадает одна аудиодорожка из саундтрека ('Линия жизни» группы «Сплин').
Релиз от:

Качество: WEB-DL 1080p
Продолжительность: 02:02:40
Формат: MKV
Главы: Есть
Видео кодек: AVC
Аудио кодек: AC3, AAC
Видео: 1920x1080 at 25.000 fps, MPEG-4 AVC, ~6000 kbps avg
Аудио#1: : AC3, 48 kHz, 6 ch, ~448 kbps - (DUB DVD R5 - AMALGAMA)
Аудио#2: : AC3, 48 kHz, 6 ch, ~448 kbps - ('International' DVD R5 - AMALGAMA)*
Аудио#3: : AAC, 48 kHz, 2 ch, ~160 kbps - (iTunes)
ЦитатаКто-то писал:* Английские, украинские и проч. фразы оставлены на оригинальном языке

MediaInfo

Общее
Формат : Matroska
Версия формата : Version 4 / Version 2
Размер файла : 5,30 Гбайт
Продолжительность : 2 ч. 2 м.
Общий поток : 6182 Кбит/сек
Название фильма : BRAT2_WEB-DL_1080p-BLUEBIRD
Дата кодирования : UTC 2015-12-19 13:22:36
Программа кодирования : mkvmerge v7.1.0 ('Good Love') 64bit built on Jul 27 2014 13:06:55
Библиотека кодирования : libebml v1.3.0 + libmatroska v1.4.1
Видео
Идентификатор : 1
Формат : AVC
Формат/Информация : Advanced Video Codec
Профиль формата : High@L4
Параметр CABAC формата : Да
Параметр ReFrames формата : 4 кадра
Идентификатор кодека : V_MPEG4/ISO/AVC
Продолжительность : 2 ч. 2 м.
Ширина : 1920 пикселей
Высота : 1080 пикселей
Соотношение сторон : 16:9
Режим частоты кадров : Постоянный
Частота кадров : 25,000 кадров/сек
Цветовое пространство : YUV
Субдискретизация насыщенности : 4:2:0
Битовая глубина : 8 бит
Тип развёртки : Прогрессивная
Заголовок : BRAT2_WEB-DL_1080p-BLUEBIRD
Язык : Russian
Default : Да
Forced : Нет
Цветовой диапазон : Limited
Основные цвета : BT.709
Характеристики трансфера : BT.709
Коэффициенты матрицы : BT.709
Аудио #1
Идентификатор : 2
Формат : AC-3
Формат/Информация : Audio Coding 3
Расширение режима : CM (complete main)
Параметр Endianness формата : Big
Идентификатор кодека : A_AC3
Продолжительность : 2 ч. 2 м.
Вид битрейта : Постоянный
Битрейт : 448 Кбит/сек
Каналы : 6 каналов
Расположение каналов : Front: L C R, Side: L R, LFE
Частота : 48,0 КГц
Метод сжатия : С потерями
Размер потока : 393 Мбайт (7%)
Заголовок : [DUB] DD 5.1 @ 448 kbps - 'DVD-R5 AMALGAMA'
Язык : Russian
Default : Нет
Forced : Нет
Аудио #2
Идентификатор : 3
Формат : AC-3
Формат/Информация : Audio Coding 3
Расширение режима : CM (complete main)
Параметр Endianness формата : Big
Идентификатор кодека : A_AC3
Продолжительность : 2 ч. 2 м.
Вид битрейта : Постоянный
Битрейт : 448 Кбит/сек
Каналы : 6 каналов
Расположение каналов : Front: L C R, Side: L R, LFE
Частота : 48,0 КГц
Метод сжатия : С потерями
Размер потока : 393 Мбайт (7%)
Заголовок : [ORIGINAL] DD 5.1 @ 448 kbps - 'DVD-R5 AMALGAMA'
Язык : Russian
Default : Нет
Forced : Нет
Аудио #3
Идентификатор : 4
Формат : AAC
Формат/Информация : Advanced Audio Codec
Профиль формата : LC
Идентификатор кодека : A_AAC
Продолжительность : 2 ч. 2 м.
Каналы : 2 канала
Расположение каналов : Front: L R
Частота : 48,0 КГц
Метод сжатия : С потерями
Заголовок : [ORIGINAL] AAC 2.0 @ 160 kbps - 'iTunes'
Язык : Russian
Default : Нет
Forced : Нет
Текст
Идентификатор : 5
Формат : UTF-8
Идентификатор кодека : S_TEXT/UTF8
Идентификатор кодека/Информация : UTF-8 Plain Text
Заголовок : [Full-length]
Язык : Russian
Default : Нет
Forced : Нет
Меню
00:00:00.000 : en:Глава 1
00:07:38.000 : en:Глава 2
00:13:07.000 : en:Глава 3
00:18:14.000 : en:Глава 4
00:24:38.000 : en:Глава 5
00:31:27.000 : en:Глава 6
00:38:10.000 : en:Глава 7
00:44:05.000 : en:Глава 8
00:51:29.000 : en:Глава 9
00:57:08.000 : en:Глава 10
01:02:41.000 : en:Глава 11
01:08:01.000 : en:Глава 12
01:14:26.000 : en:Глава 13
01:22:00.000 : en:Глава 14
01:28:24.000 : en:Глава 15
01:33:59.000 : en:Глава 16
01:39:27.000 : en:Глава 17
01:45:27.000 : en:Глава 18
01:52:06.000 : en:Глава 19
01:56:34.000 : en:Глава 20
[Профиль] [ЛС]
Показать сообщения:    

Текущее время: Сегодня 09:57

Часовой пояс: GMT



Вы не можете начинать темы
Вы не можете отвечать на сообщения
Вы не можете редактировать свои сообщения
Вы не можете удалять свои сообщения
Вы не можете голосовать в опросах
Вы не можете прикреплять файлы к сообщениям
Вы не можете скачивать файлы