Брат (1997) HDDVDRip 1080p

 
Автор Сообщение

sergej644 ®

Пол:

Стаж: 4 года 11 месяцев

Сообщений: 6041

Откуда: Soviet Union



Награды: Нет

Торрент-статистика

Создавать темы 31-Окт-2014 15:22

[Цитировать]

--Брат (1997)
Информация о фильме
Название: Брат
Год выхода: 1997
Страна: Россия
Жанр: Боевик, драма, криминал
Продолжительность: 01:39:36
Перевод: Оригинал
Режиссер: Алексей Балабанов
В ролях: Сергей Бодров мл., Виктор Сухоруков, Светлана Письмиченко, Мария Жукова, Юрий Кузнецов, Андрей Краско, Вячеслав Бутусов, Игорь Лифанов, Ирина Ракшина, Сергей Мурзин, Анатолий Журавлев, Игорь Шибанов, Андрей Федорцов, Алексей Севостьянов (II), Владимир Ермилов, Денис Кириллов, Виталий Матвеев, Василина Стрельникова, Татьяна Захарова, Сергей Дебижев, Константин Анисимов-Сюжет фильма
Данила возвращается из армии, где он, как будет далее видно, явно не писарем при штабе служил, а пороху понюхал. По совету матери он уезжает к старшему брату (Сухоруков) в Питер, где последний работает наемным убийцей по кличке Татарин. Еще до встречи с братом Данила разживается.
-Файл
Кодек: x264
Формат: MKV
Качество: HDDVDRip 1080p
Видео: MPEG-4 AVC (16:9) 1904x1072, 23.976 fps, 5900 kbps
Аудио: Dolby Digital (5.1) 16 bit, 48 kHz, 384 kbps
Субтитры: SRT Английские--

MI & x264

General
Unique ID : 171624358542397123213041292059616964300 (0x811DA62D6758801281EA5F906B976ECC)
Format : Matroska
Format version : Version 2
File size : 4.37 GiB
Duration : 1h 39mn
Overall bit rate : 6 286 Kbps
Encoded date : UTC 2013-04-03 08:24:03
Writing application : mkvmerge v5.8.0 ('No Sleep / Pillow') built on Sep 2 2012 15:37:04
Writing library : libebml v1.2.3 + libmatroska v1.3.0
Video
ID : 1
Format : AVC
Format/Info : Advanced Video Codec
Format profile : High@L4.1
Format settings, CABAC : Yes
Format settings, ReFrames : 4 frames
Codec ID : V_MPEG4/ISO/AVC
Duration : 1h 39mn
Bit rate : 5 900 Kbps
Width : 1 904 pixels
Height : 1 072 pixels
Display aspect ratio : 16:9
Frame rate mode : Constant
Frame rate : 23.976 fps
Color space : YUV
Chroma subsampling : 4:2:0
Bit depth : 8 bits
Scan type : Progressive
Bits/(Pixel*Frame) : 0.121
Stream size : 4.02 GiB (92%)
Title : Release by Alex260680
Writing library : x264 core 130 r2273 b3065e6
Encoding settings : cabac=1 / ref=4 / deblock=1:0:0 / analyse=0x3:0x133 / me=umh / subme=11 / psy=1 / psy_rd=1.20:0.00 / mixed_ref=1 / me_range=32 / chroma_me=1 / trellis=2 / 8x8dct=1 / cqm=0 / deadzone=21,11 / fast_pskip=0 / chroma_qp_offset=-2 / threads=12 / lookahead_threads=1 / sliced_threads=0 / nr=0 / decimate=0 / interlaced=0 / bluray_compat=0 / constrained_intra=0 / bframes=5 / b_pyramid=2 / b_adapt=2 / b_bias=0 / direct=3 / weightb=1 / open_gop=0 / weightp=2 / keyint=240 / keyint_min=23 / scenecut=40 / intra_refresh=0 / rc=2pass / mbtree=0 / bitrate=5900 / ratetol=1.0 / qcomp=0.60 / qpmin=0 / qpmax=69 / qpstep=4 / cplxblur=20.0 / qblur=0.5 / ip_ratio=1.40 / pb_ratio=1.30 / aq=1:1.00
Language : Russian
Default : Yes
Forced : No
Audio
ID : 2
Format : AC-3
Format/Info : Audio Coding 3
Mode extension : CM (complete main)
Format settings, Endianness : Big
Codec ID : A_AC3
Duration : 1h 39mn
Bit rate mode : Constant
Bit rate : 384 Kbps
Channel(s) : 6 channels
Channel positions : Front: L C R, Side: L R, LFE
Sampling rate : 48.0 KHz
Bit depth : 16 bits
Compression mode : Lossy
Stream size : 274 MiB (6%)
Title : Original
Language : Russian
Default : Yes
Forced : No
Text
ID : 3
Format : UTF-8
Codec ID : S_TEXT/UTF8
Codec ID/Info : UTF-8 Plain Text
Language : English
Default : No
Forced : No-x264 [info]: frame I:792 Avg QP:15.90 size:110885
x264 [info]: frame P:31818 Avg QP:18.48 size: 55585
x264 [info]: frame B:110691 Avg QP:19.59 size: 23052
ДополнительноИспользуемое программное обеспечение: "Eac3to", "XviD4PSP", "Sonic Foundry Soft Encode", "SupRip", "MKVToolNix"
-Скриншоты
-
[Профиль] [ЛС]
Показать сообщения:    

Текущее время: Сегодня 21:02

Часовой пояс: GMT



Вы не можете начинать темы
Вы не можете отвечать на сообщения
Вы не можете редактировать свои сообщения
Вы не можете удалять свои сообщения
Вы не можете голосовать в опросах
Вы не можете прикреплять файлы к сообщениям
Вы не можете скачивать файлы