Братья / Brothers (2016) WEBDLRip-AVC от Batafurai Team и SOUND-GROUP | L2

 
Автор Сообщение

Russian Mafia ®

Пол:

Стаж: 1 год 8 месяцев

Сообщений: 4253



Награды: 10 (Подробнее)

Mega Seeder 3 (Количество: 1) Mega Seeder 1 (Количество: 1) Top Releaser 4 (Количество: 1)
Торрент-статистика

Создавать темы 30-Авг-2016 17:56

[Цитировать]

Братья / Brothers
Год выпуска: 2016
Страна: Китай
Жанр: драма, боевик
Продолжительность: 01:35:45
Перевод: Любительский (двухголосый закадровый)
Cубтитры: китайский/английский хардсаб
Русские субтитры: есть
Режиссер: А Гань / Ah Gan
В ролях: Питер Хо, Итан Ли, Ся Цзытун, Ян Цимин, Тянь Юань, Хэ Ланьпэн, Нинг Сонг и др.
Описание: Фильм об отношениях между двумя братьями, которые были тесно связаны на протяжении жизни, не смотря на гражданскую войну в 1936 году.
Релиз группы:
Доп. информация: Перевод: Ворон, Редакция: Chibi-Chan (ФСГ "RINGU")
Озвучивание: Ворон и Wenlana
Смотреть обязательно с форсированными субтитрами
Прежде чем качать видео и комментировать, скачайте сэмпл и послушайте!

Качество видео: WEBDLRip-AVC - Сэмпл
Исходник: Brothers.2016.1080p.WEB-DL.x264.AC3-SeeHD
Формат видео: MKV
Видео: 720x304 (2.35:1), 24,000 fps, x264 ~1745 kbps avg, 0.332 bit/pixel
Аудио: 48 kHz, AC3 Dolby Digital, 2/0 (L,R) ch, ~224 kbps (Русский)
Аудио 2: 48 kHz, AC3 Dolby Digital, 2/0 (L,R) ch, ~224 kbps (Китайский)
Формат субтитров: [форсированный(надписи) / полные]softsub (ass)

Скриншоты

отчет MediaInfo

Формат : Matroska
Версия формата : Version 4 / Version 2
Размер файла : 1,47 Гбайт
Продолжительность : 1 ч. 35 м.
Общий поток : 2195 Кбит/сек
Дата кодирования : UTC 2016-08-30 16:51:34
Программа кодирования : mkvmerge v8.2.0 ('World of Adventure') 32bit
Библиотека кодирования : libebml v1.3.1 + libmatroska v1.4.2
Attachments : ariblk.ttf / ariblk_0.ttf / HATTEN.TTF
Видео
Идентификатор : 1
Формат : AVC
Формат/Информация : Advanced Video Codec
Профиль формата : High@L4.1
Параметр CABAC формата : Да
Параметр ReFrames формата : 9 кадров
Идентификатор кодека : V_MPEG4/ISO/AVC
Продолжительность : 1 ч. 35 м.
Битрейт : 1745 Кбит/сек
Ширина : 720 пикселей
Высота : 304 пикселя
Соотношение сторон : 2,35:1
Режим частоты кадров : Постоянный
Частота кадров : 24,000 кадра/сек
Цветовое пространство : YUV
Субдискретизация насыщенности : 4:2:0
Битовая глубина : 8 бит
Тип развёртки : Прогрессивная
Бит/(Пиксели*Кадры) : 0.332
Размер потока : 1,17 Гбайт (79%)
Библиотека кодирования : x264 core 148 r2638 7599210
Настройки программы : cabac=1 / ref=9 / deblock=1:-2:-1 / analyse=0x3:0x133 / me=umh / subme=10 / psy=1 / psy_rd=1.00:0.00 / mixed_ref=1 / me_range=24 / chroma_me=1 / trellis=2 / 8x8dct=1 / cqm=0 / deadzone=21,11 / fast_pskip=0 / chroma_qp_offset=-2 / threads=6 / lookahead_threads=1 / sliced_threads=0 / nr=0 / decimate=0 / interlaced=0 / bluray_compat=0 / constrained_intra=0 / bframes=9 / b_pyramid=2 / b_adapt=2 / b_bias=0 / direct=3 / weightb=1 / open_gop=1 / weightp=2 / keyint=240 / keyint_min=24 / scenecut=40 / intra_refresh=0 / rc_lookahead=60 / rc=2pass / mbtree=0 / bitrate=1745 / ratetol=1.0 / qcomp=0.70 / qpmin=10 / qpmax=51 / qpstep=4 / cplxblur=20.0 / qblur=0.5 / vbv_maxrate=62500 / vbv_bufsize=78125 / nal_hrd=none / filler=0 / ip_ratio=1.40 / pb_ratio=1.30 / aq=1:1.00
Язык : English
Default : Да
Forced : Нет
Цветовой диапазон : Limited
Коэффициенты матрицы : BT.709
Аудио #1
Идентификатор : 2
Формат : AC-3
Формат/Информация : Audio Coding 3
Расширение режима : CM (complete main)
Параметр Endianness формата : Big
Идентификатор кодека : A_AC3
Продолжительность : 1 ч. 35 м.
Вид битрейта : Постоянный
Битрейт : 224 Кбит/сек
Каналы : 2 канала
Расположение каналов : Front: L R
Частота : 48,0 КГц
Частота кадров : 31,250 кадров/сек (1536 spf)
Метод сжатия : С потерями
Размер потока : 153 Мбайт (10%)
Заголовок : Ворон и Wenlana
Язык : Russian
Default : Да
Forced : Нет
Аудио #2
Идентификатор : 3
Формат : AC-3
Формат/Информация : Audio Coding 3
Расширение режима : CM (complete main)
Параметр Endianness формата : Big
Идентификатор кодека : A_AC3
Продолжительность : 1 ч. 35 м.
Вид битрейта : Постоянный
Битрейт : 224 Кбит/сек
Каналы : 2 канала
Расположение каналов : Front: L R
Частота : 48,0 КГц
Частота кадров : 31,250 кадров/сек (1536 spf)
Метод сжатия : С потерями
Размер потока : 153 Мбайт (10%)
Заголовок : Original
Язык : Chinese
Default : Нет
Forced : Нет
Текст #1
Идентификатор : 4
Формат : ASS
Идентификатор кодека : S_TEXT/ASS
Идентификатор кодека/Информация : Advanced Sub Station Alpha
Продолжительность : 10 м.
Битрейт : 2 бит/сек
Count of elements : 3
Метод сжатия : Без потерь
Размер потока : 179 байт (0%)
Заголовок : форсированный(надписи)
Язык : Russian
Default : Да
Forced : Да
Текст #2
Идентификатор : 5
Формат : ASS
Идентификатор кодека : S_TEXT/ASS
Идентификатор кодека/Информация : Advanced Sub Station Alpha
Продолжительность : 1 ч. 26 м.
Битрейт : 53 бит/сек
Count of elements : 560
Метод сжатия : Без потерь
Размер потока : 34,3 Кбайт (0%)
Заголовок : Перевод: Batafurai Team и ФСГ "RINGU"
Default : Нет
Forced : Нет

Пример Субтитров

Dialogue: 0,0:02:57.75,0:02:58.37,Разговор,,0,0,0,,Брат!
Dialogue: 0,0:02:59.79,0:03:02.04,Разговор,,0,0,0,,Брат, я так по тебе соскучился.
Dialogue: 0,0:03:03.75,0:03:05.29,Разговор,,0,0,0,,Мелкий паршивец.
Dialogue: 0,0:03:11.70,0:03:12.62,Разговор,,0,0,0,,Брат.
Dialogue: 0,0:03:39.29,0:03:40.58,Разговор,,0,0,0,,Это всё что у меня есть.
Dialogue: 0,0:03:42.29,0:03:45.33,Разговор,,0,0,0,,Внушительный у тебя дружок
Dialogue: 0,0:04:09.20,0:04:10.04,Разговор,,0,0,0,,Ты когда-нибудь,
Dialogue: 0,0:04:12.54,0:04:13.91,Разговор,,0,0,0,,пробовал это?
Dialogue: 0,0:04:17.79,0:04:18.87,Разговор,,0,0,0,,Чёрт!
Dialogue: 0,0:04:20.29,0:04:22.45,Разговор,,0,0,0,,А ведь это был и мой первый грёбаный раз.
Dialogue: 0,0:04:25.91,0:04:26.70,Разговор,,0,0,0,,Брат.
Dialogue: 0,0:04:28.12,0:04:29.24,Разговор,,0,0,0,,Каково это?
Dialogue: 0,0:04:35.83,0:04:37.29,Разговор,,0,0,0,,Примерно вот так.
Dialogue: 0,0:04:52.08,0:04:55.41,Разговор,,0,0,0,,Брат. Ты столько лет страдал в тюрьме,
Dialogue: 0,0:04:55.87,0:04:57.16,Разговор,,0,0,0,,и всё из-за меня.
Dialogue: 0,0:04:58.33,0:04:59.20,Разговор,,0,0,0,,Твой шрам...
Dialogue: 0,0:05:01.70,0:05:02.83,Разговор,,0,0,0,,Что такое братец?
Dialogue: 0,0:05:04.79,0:05:05.91,Разговор,,0,0,0,,Что?
Dialogue: 0,0:05:06.37,0:05:09.20,Разговор,,0,0,0,,Ты баба!
Dialogue: 0,0:05:43.87,0:05:45.70,Разговор,,0,0,0,,Хватит играть на нашем пианино!
Dialogue: 0,0:05:46.70,0:05:48.16,Разговор,,0,0,0,,Оно очень дорогое!
Dialogue: 0,0:06:24.00,0:06:25.16,В предсерии мысли,,0,0,0,,Брат!
Dialogue: 0,0:07:22.45,0:07:23.41,Разговор,,0,0,0,,Браво!
Dialogue: 0,0:07:31.45,0:07:32.49,Разговор,,0,0,0,,Теперь я знаю,
Dialogue: 0,0:07:33.50,0:07:34.99,Разговор,,0,0,0,,почему ты так сильно любишь музыку.
Dialogue: 0,0:07:35.20,0:07:37.24,Разговор,,0,0,0,,Братец, ты тоже разбираешься в музыке?
Dialogue: 0,0:07:38.29,0:07:39.24,Разговор,,0,0,0,,Кто тебя научил?
Dialogue: 0,0:07:39.54,0:07:40.66,Разговор,,0,0,0,,Пианист.
Dialogue: 0,0:07:42.58,0:07:43.41,Разговор,,0,0,0,,Сегодня,
Dialogue: 0,0:07:43.66,0:07:46.79,Разговор,,0,0,0,,давай пить так, словно завтра не наступит....
[Профиль] [ЛС]
Показать сообщения:    

Текущее время: Сегодня 01:10

Часовой пояс: GMT



Вы не можете начинать темы
Вы не можете отвечать на сообщения
Вы не можете редактировать свои сообщения
Вы не можете удалять свои сообщения
Вы не можете голосовать в опросах
Вы не можете прикреплять файлы к сообщениям
Вы не можете скачивать файлы