Братья по обмену / Серии: 1-10 из 10 (Александр Жигалкин) [2013, Комедия, HDTV 1080i]

 
Автор Сообщение

sergej644 ®

Пол:

Стаж: 4 года 11 месяцев

Сообщений: 6046

Откуда: Soviet Union



Награды: Нет

Торрент-статистика

Создавать темы 15-Июл-2014 22:06

[Цитировать]

-Братья по обмену

Год выпуска: 2013
Производство: "Yellow, Black and White" по заказу телеканала Россия 1
Жанр: Комедия
Продолжительность: ~0:45:00 серия
Субтитры: нет
Режиссёр: Александр Жигалкин
В ролях:
Фёдор Добронравов, Мария Аронова, Борис Клюев, Галина Петрова, Елена Шевченко, Карэн Бадалов, Мария Горбань, Юлия Зимина, Виктор Добронравов, Светлана Малюкова, Дмитрий Быковский, Сергей Беляев, Олег Кассин, Марина Ильина, Алексей Якубов, Татьяна Жукова-Киртбая, Алина Кизиярова, Анатолий Узденский, Александр Назаров (II), Александр Нестеров, Дмитрий Меденников, Григорий Зельцер
Описание:
Это история о двух братьях-близнецах, которые после тридцатилетней разлуки встречаются на родине, в глухом селе на похоронах отца. Волею судеб, их жизнь сложилась по-разному. И сами они, на первый взгляд, совершенно не похожи друг на друга: один – преуспевающий бизнесмен, второй – пьяница и зэк. Но постепенно становится понятно, что они родные люди, и сходство у них не только внешнее. Случайно поменявшись местами, каждый смог реализовать ту часть себя, которая была невостребована в их обычной жизни… и, конечно, найти настоящую любовь.

Качество: HDTV 1080i
Формат: TS
Видео кодек: H.264
Аудио кодек: MPEG Audio
Видео: MPEG4 Video (H264) 1920x1080, ~ 5888 kbps, 25.00fps 0.114 bit/pixel
Аудио: MPEG Audio, 2 канала, 48,0 КГц, ~256 kbps

MediaInfo

Общее
Идентификатор                            : 1 (0x1)
Полное имя                               : H:\ФИЛЬМЫ\Братья по обмену HDTV 1080i\Братья по обмену 01_серия_HDTV_1080i.ts
Формат                                   : MPEG-TS
Размер файла                             : 1,98 Гбайт
Продолжительность                        : 43 м.
Режим общего битрейта                    : Переменный
Общий поток                              : 6466 Кбит/сек
Максимальный общий битрейт               : 35,5 Мбит/сек
Видео
Идентификатор                            : 4113 (0x1011)
Идентификатор меню                       : 1 (0x1)
Формат                                   : AVC
Формат/Информация                        : Advanced Video Codec
Профиль формата                          : High@L4.1
Параметр CABAC формата                   : Да
Параметр ReFrames формата                : 3 кадра
Идентификатор кодека                     : 27
Продолжительность                        : 43 м.
Вид битрейта                             : Переменный
Битрейт                                  : 5888 Кбит/сек
Максимальный битрейт                     : 40,0 Мбит/сек
Ширина                                   : 1920 пикселей
Высота                                   : 1080 пикселей
Соотношение сторон                       : 16:9
Частота кадров                           : 25,000 кадров/сек
Цветовое пространство                    : YUVСубдискретизация насыщенности            : 4:2:0
Битовая глубина                          : 8 бит
Тип развёртки                            : ПрогрессивнаяБит/(Пиксели*Кадры)                      : 0.114
Размер потока                            : 1,81 Гбайт (91%)
Аудио
Идентификатор                            : 4352 (0x1100)
Идентификатор меню                       : 1 (0x1)
Формат                                   : MPEG Audio
Версия формата                           : Version 1
Профиль формата                          : Layer 2
Идентификатор кодека                     : 4
Продолжительность                        : 43 м.
Вид битрейта                             : Постоянный
Битрейт                                  : 256 Кбит/сек
Каналы                                   : 2 каналаЧастота                                  : 48,0 КГц
Метод сжатия                             : С потерями
Размер потока                            : 80,4 Мбайт (4%)
Язык                                     : Russian
Раздача группы: -

Скриншоты

--
[Профиль] [ЛС]
Показать сообщения:    

Текущее время: Сегодня 01:22

Часовой пояс: GMT



Вы не можете начинать темы
Вы не можете отвечать на сообщения
Вы не можете редактировать свои сообщения
Вы не можете удалять свои сообщения
Вы не можете голосовать в опросах
Вы не можете прикреплять файлы к сообщениям
Вы не можете скачивать файлы