Братья по крови / Blutsbruder (1975) BDRip 720p | D | Советский дубляж

 
Автор Сообщение

Russian Mafia ®

Пол:

Стаж: 1 год 8 месяцев

Сообщений: 4257



Награды: 10 (Подробнее)

Top Releaser 2 (Количество: 1) За внесенный вклад в развитие сайта (Количество: 1) Top Releaser 3 (Количество: 1)
Торрент-статистика

Создавать темы 03-Авг-2016 14:33

[Цитировать]

Информация о фильме
Название: Братья по крови
Оригинальное название: Blutsbruder
Год выхода: 1975
Жанр: Драма, вестерн
Режиссер: Вернер В. Валльрот
В ролях: Гойко Митич, Дин Рид, Гизела Фройденберг, Йорг Панкнин, Корнел Испас, Сина Фидлер, Евгения Босэнчяну, Маня Александру, Тома Димитриу
О фильме:
Американский солдат, осуждающий истребление индейцев, оставляет армию и переходит на их сторону. Он становится мужем прекрасной индианки, скрепляет кровью свою дружбу с вождем племени и вместе с ним возглавляет восстание против американцев.

Страна: Германия (ГДР)
Студия: Киностудия Дефа
Продолжительность: 01:35:34
Перевод: Полное дублирование [Советский дубляж + вставки Ю.Сербина]
Файл
Качество: BDRip 720p
Кодек: MPEG-4 AVC
Видео: 960x720 (4:3), 25 fps, MPEG-4 AVC ~8500 kbps avg, 0.492 bit/pixel
Звук: 48 kHz, AC3, 2 ch, ~384.00 kbps avg | русский | Профессиональный (полное дублирование)[Советский дубляж + вставки Ю.Сербина]
Звук: 48 kHz, AC3, 2 ch, ~384.00 kbps avg | немецкий |
Субтитры: Английские (full)

Инфо-файл

Общее
Уникальный идентификатор : 186685207113766636019212820993505305416 (0x8C7243579A2A535C865DB4314E8D2348)
Полное имя : D:TorrentsЗавершенныеBlood.Brothers.1975.720p.BluRay.Rus.Eng.HDCLUB-SbR.mkv
Формат : Matroska
Версия формата : Version 4 / Version 2
Размер файла : 6,19 Гбайт
Продолжительность : 1 ч. 35 м.
Общий поток : 9268 Кбит/сек
Дата кодирования : UTC 2016-08-02 08:15:23
Программа кодирования : mkvmerge v8.3.0 ('Over the Horizon') 32bit
Библиотека кодирования : libebml v1.3.1 + libmatroska v1.4.2
Обложка : Yes
Attachments : cover.jpg
Видео
Идентификатор : 1
Формат : AVC
Формат/Информация : Advanced Video Codec
Профиль формата : High@L4.1
Параметр CABAC формата : Да
Параметр ReFrames формата : 12 кадров
Идентификатор кодека : V_MPEG4/ISO/AVC
Продолжительность : 1 ч. 35 м.
Битрейт : 8500 Кбит/сек
Ширина : 960 пикселей
Высота : 720 пикселей
Соотношение сторон : 4:3
Режим частоты кадров : Постоянный
Частота кадров : 25,000 кадров/сек
Цветовое пространство : YUV
Субдискретизация насыщенности : 4:2:0
Битовая глубина : 8 бит
Тип развёртки : Прогрессивная
Бит/(Пиксели*Кадры) : 0.492
Размер потока : 5,67 Гбайт (92%)
Библиотека кодирования : x264 core 148 r2705+54 9f484c1 t_mod_Custom [8-bit@all X86_64]
Настройки программы : cabac=1 / ref=12 / deblock=1:-3:-3 / analyse=0x3:0x133 / me=umh / subme=10 / psy=1 / fade_compensate=0.00 / psy_rd=1.10:0.05 / mixed_ref=1 / me_range=24 / chroma_me=1 / trellis=2 / 8x8dct=1 / cqm=0 / deadzone=21,11 / fast_pskip=0 / chroma_qp_offset=-3 / threads=6 / lookahead_threads=1 / sliced_threads=0 / nr=0 / decimate=1 / interlaced=0 / bluray_compat=0 / constrained_intra=0 / fgo=0 / bframes=8 / b_pyramid=2 / b_adapt=2 / b_bias=0 / direct=3 / weightb=1 / open_gop=0 / weightp=2 / keyint=250 / keyint_min=25 / scenecut=40 / intra_refresh=0 / rc=2pass / mbtree=0 / bitrate=8500 / ratetol=1.0 / qcomp=0.65 / qpmin=0:0:0 / qpmax=69:69:69 / qpstep=4 / cplxblur=20.0 / qblur=0.5 / ip_ratio=1.30 / pb_ratio=1.20 / aq=1:0.65 / aq-sensitivity=10.00 / aq-factor=1.00:1.00:1.00 / aq2=1:0.60 / aq2-sensitivity=15.00 / aq2-factor=1.00:1.00:1.00 / aq3=1:[0.50:0.50]:[0.50:0.50]:[0.50:0.50]:[0.50:0.50] / aq3-sensitivity=10.00 / aq3-factor=[1.00:1.00]:[1.00:1.00]:[1.00:1.00] / aq3-boundary=192:64:24
Язык : English
Default : Да
Forced : Нет
Цветовой диапазон : Limited
Коэффициенты матрицы : BT.709
Аудио #1
Идентификатор : 2
Формат : AC-3
Формат/Информация : Audio Coding 3
Расширение режима : CM (complete main)
Параметр Endianness формата : Big
Идентификатор кодека : A_AC3
Продолжительность : 1 ч. 35 м.
Вид битрейта : Постоянный
Битрейт : 384 Кбит/сек
Каналы : 2 канала
Расположение каналов : Front: L R
Частота : 48,0 КГц
Частота кадров : 31,250 кадров/сек (1536 spf)
Метод сжатия : С потерями
Размер потока : 263 Мбайт (4%)
Заголовок : Дубляж + вставки Ю.Сербина
Язык : Russian
Default : Да
Forced : Нет
Аудио #2
Идентификатор : 3
Формат : AC-3
Формат/Информация : Audio Coding 3
Расширение режима : CM (complete main)
Параметр Endianness формата : Big
Идентификатор кодека : A_AC3
Продолжительность : 1 ч. 35 м.
Вид битрейта : Постоянный
Битрейт : 384 Кбит/сек
Каналы : 2 канала
Расположение каналов : Front: L R
Частота : 48,0 КГц
Частота кадров : 31,250 кадров/сек (1536 spf)
Метод сжатия : С потерями
Размер потока : 262 Мбайт (4%)
Язык : German
Default : Нет
Forced : Нет
Текст
Идентификатор : 4
Формат : UTF-8
Идентификатор кодека : S_TEXT/UTF8
Идентификатор кодека/Информация : UTF-8 Plain Text
Продолжительность : 1 ч. 35 м.
Битрейт : 31 бит/сек
Count of elements : 677
Размер потока : 22,0 Кбайт (0%)
Язык : English
Default : Нет
Forced : Нет
Меню
00:00:00.000 : en:00:00:00.000
00:04:54.600 : en:00:04:54.600
00:10:02.280 : en:00:10:02.280
00:19:42.520 : en:00:19:42.520
00:28:29.640 : en:00:28:29.640
00:40:06.640 : en:00:40:06.640
00:53:31.520 : en:00:53:31.520
01:07:38.440 : en:01:07:38.440
01:23:16.000 : en:01:23:16.000

Скриншоты

Релиз от:
[Профиль] [ЛС]
Показать сообщения:    

Текущее время: Сегодня 06:26

Часовой пояс: GMT



Вы не можете начинать темы
Вы не можете отвечать на сообщения
Вы не можете редактировать свои сообщения
Вы не можете удалять свои сообщения
Вы не можете голосовать в опросах
Вы не можете прикреплять файлы к сообщениям
Вы не можете скачивать файлы