Братья из Гримсби / Grimsby (2016) BDRemux 1080p от ExKinoRay | Лицензия

 
Автор Сообщение

Russian Mafia ®

Пол:

Стаж: 1 год 8 месяцев

Сообщений: 4247



Награды: 10 (Подробнее)

Top Releaser 5 (Количество: 1) Top Releaser 2 (Количество: 1) Mega Seeder 3 (Количество: 1)
Торрент-статистика

Создавать темы 23-Июл-2016 04:31

[Цитировать]

Информация о фильме
Название: Братья из Гримсби
Оригинальное название: Grimsby
Год выхода: 2016
Жанр: Боевик, комедия
Режиссер: Луи Летерье
В ролях: Саша Барон Коэн, Марк Стронг, Ребел Уилсон, Пенелопа Крус, Айла Фишер, Габури Сидибе, Аннабелль Уоллис, Иэн МакШейн, Дэвид Хэрвуд, Рикки Томлинсон
О фильме:
Сверхсекретная операция, которую выполняет образцовый спецагент, с треском провалена из-за некстати свалившегося на его голову неадекватного брата — оголтелого футбольного фаната и полного беспредельщика. Теперь герою предстоит спасти свою жизнь и вдобавок планету от нависшей над ней угрозы — практически невыполнимая задача в тандеме с вновь приобретенным родственником.

Страна: Великобритания, Австралия
Студия: Big Talk Productions, Columbia Pictures, Four by Two Films, LStar Capital
Продолжительность: 01:23:31
Перевод: Дублированный | Лицензия Blu-Ray CEE
Файл
Кодек: MPEG-4
Качество: BDRemux 1080p
Видео: 1920x1080, 24.9 Mbit/s, 23.976 fps
Звук:
Аудио #01: 48 kHz, AC3, 5.1, 640 Kbps | Дублированный, Лицензия Blu-Ray CEE |AC3
Аудио #02: 48 kHz, DTS-HD MA, 5.1, 2312 kbps | Оригинал |DTS-HD MA

MI

General
Unique ID : 236064723260850429376882903010626229084 (0xB1986974844F3805ABF53CBF1E7FD35C)
Complete name : G:VideoНовая папкаThe.Brothers.Grimsby.2016.BDRemux.1080p.ExKinoRay.mkv
Format : Matroska
Format version : Version 4 / Version 2
File size : 16.2 GiB
Duration : 1h 23mn
Overall bit rate mode : Variable
Overall bit rate : 27.8 Mbps
Movie name : The.Brothers.Grimsby.2016.BDRemux.1080p.ExKinoRay
Encoded date : UTC 2016-07-23 03:17:43
Writing application : mkvmerge v8.3.0 ('Over the Horizon') 64bit
Writing library : libebml v1.3.1 + libmatroska v1.4.2
Video
ID : 1
Format : AVC
Format/Info : Advanced Video Codec
Format profile : High@L4.1
Format settings, CABAC : Yes
Format settings, ReFrames : 2 frames
Format settings, GOP : M=1, N=10
Codec ID : V_MPEG4/ISO/AVC
Duration : 1h 23mn
Bit rate mode : Variable
Bit rate : 24.9 Mbps
Width : 1 920 pixels
Height : 1 080 pixels
Display aspect ratio : 16:9
Frame rate mode : Constant
Frame rate : 23.976 (24000/1001) fps
Color space : YUV
Chroma subsampling : 4:2:0
Bit depth : 8 bits
Scan type : Progressive
Bits/(Pixel*Frame) : 0.500
Stream size : 14.4 GiB (89%)
Language : English
Default : Yes
Forced : No
Audio #1
ID : 2
Format : AC-3
Format/Info : Audio Coding 3
Mode extension : CM (complete main)
Format settings, Endianness : Big
Codec ID : A_AC3
Duration : 1h 23mn
Bit rate mode : Constant
Bit rate : 640 Kbps
Channel(s) : 6 channels
Channel positions : Front: L C R, Side: L R, LFE
Sampling rate : 48.0 KHz
Frame rate : 31.250 fps (1536 spf)
Compression mode : Lossy
Stream size : 381 MiB (2%)
Title : DUB [Blu-Ray CEE]
Language : Russian
Default : Yes
Forced : No
Audio #2
ID : 3
Format : DTS
Format/Info : Digital Theater Systems
Format profile : MA / Core
Mode : 16
Format settings, Endianness : Big
Codec ID : A_DTS
Duration : 1h 23mn
Bit rate mode : Variable / Constant
Bit rate : 2 312 Kbps / 1 509 Kbps
Channel(s) : 6 channels
Channel positions : Front: L C R, Side: L R, LFE
Sampling rate : 48.0 KHz
Frame rate : 93.750 fps (512 spf)
Bit depth : 16 bits
Compression mode : Lossless / Lossy
Stream size : 1.34 GiB (8%)
Title : Original
Language : English
Default : No
Forced : No
Menu
00:00:00.000 : en:Chapter 01
00:06:54.331 : en:Chapter 02
00:11:00.994 : en:Chapter 03
00:16:25.735 : en:Chapter 04
00:21:37.630 : en:Chapter 05
00:26:43.727 : en:Chapter 06
00:31:46.863 : en:Chapter 07
00:36:48.706 : en:Chapter 08
00:41:57.056 : en:Chapter 09
00:46:54.979 : en:Chapter 10
00:52:19.595 : en:Chapter 11
00:57:28.487 : en:Chapter 12
01:01:27.851 : en:Chapter 13
01:06:16.139 : en:Chapter 14
01:11:52.099 : en:Chapter 15
01:16:25.873 : en:Chapter 16

Скриншоты

Релиз от: Автор релиза:
[Профиль] [ЛС]
Показать сообщения:    

Текущее время: Сегодня 08:30

Часовой пояс: GMT



Вы не можете начинать темы
Вы не можете отвечать на сообщения
Вы не можете редактировать свои сообщения
Вы не можете удалять свои сообщения
Вы не можете голосовать в опросах
Вы не можете прикреплять файлы к сообщениям
Вы не можете скачивать файлы