Братья из Гримсби / Grimsby (Луи Летерье) [2016 г., боевик, комедия, HDRip-AVC] [AVO (Котов)]

 
Автор Сообщение

Bathory ®

Пол:

Стаж: 9 месяцев 3 дня

Сообщений: 169



Награды: 3 (Подробнее)

Друг (Количество: 1) За внесенный вклад в развитие сайта (Количество: 1) Girls (Количество: 1)
Торрент-статистика

Создавать темы 13-Июн-2016 15:16

[Цитировать]

Братья из Гримсби / Grimsby- Информация о фильме
Название: Братья из Гримсби
Оригинальное название: Grimsby
Год выхода: 2016
Жанр: боевик, комедия
Режиссер: Луи Летерье
В ролях: Саша Барон Коэн, Марк Стронг, Пенелопа Крус, Ребел Уилсон, Айла Фишер, Габури Сидибе, Аннабелль Уоллис, Иэн МакШейн, Дэвид Хэрвуд, Рикки Томлинсон
О фильме:
Сверхсекретная операция, которую выполняет образцовый спецагент, с треском провалена из-за некстати свалившегося на его голову неадекватного брата — оголтелого футбольного фаната и полного беспредельщика. Теперь герою предстоит спасти свою жизнь и вдобавок планету от нависшей над ней угрозы — практически невыполнимая задача в тандеме с вновь приобретенным родственником.

Страна: Великобритания, Австралия, США
Студия: Big Talk Productions, Columbia Pictures, Four by Two Films
Продолжительность: 01:23:11
Перевод: Авторский (одноголосый, закадровый) [Вячеслав Котов]

Файл
Кодек: AVC
Качество: HDRip-AVC
Видео: 880x368, 1179 kbps, 23,976 kbps, 0,152 Bits/(Pixel*Frame)
Звук: AAC, 48 kHz, 2 ch, 72 kbps
Субтитры: русские форсированные, русские полные, английские

MI

Общее
Уникальный идентификатор : 254190050395294007531556036144934284985 (0xBF3B39140C50458896EB38E82DE1EEB9)
Полное имя : F:\The.Brothers.Grimsby.2016.HDRip-AVC_by_Bathory.mkv
Формат : Matroska
Версия формата : Version 4 / Version 2
Размер файла : 746 Мбайт
Продолжительность : 1 ч. 23 м.
Общий поток : 1253 Кбит/сек
Дата кодирования : UTC 2016-06-13 14:55:03
Программа кодирования : mkvmerge v8.6.1 ('Flying') 64bit
Библиотека кодирования : libebml v1.3.3 + libmatroska v1.4.4
Видео
Идентификатор : 1
Формат : AVC
Формат/Информация : Advanced Video Codec
Профиль формата : High@L4.1
Параметр CABAC формата : Да
Параметр ReFrames формата : 12 кадров
Идентификатор кодека : V_MPEG4/ISO/AVC
Продолжительность : 1 ч. 23 м.
Битрейт : 1179 Кбит/сек
Ширина : 880 пикселей
Высота : 368 пикселей
Соотношение сторон : 2,40:1
Режим частоты кадров : Постоянный
Частота кадров : 23,976 (24000/1001) кадра/сек
Цветовое пространство : YUV
Субдискретизация насыщенности : 4:2:0
Битовая глубина : 8 бит
Тип развёртки : Прогрессивная
Бит/(Пиксели*Кадры) : 0.152
Размер потока : 701 Мбайт (94%)
Библиотека кодирования : x264 core 146 r2538 121396c
Настройки программы : cabac=1 / ref=12 / deblock=1:-3:-3 / analyse=0x3:0x133 / me=umh / subme=11 / psy=1 / psy_rd=1.00:0.12 / mixed_ref=1 / me_range=32 / chroma_me=1 / trellis=2 / 8x8dct=1 / cqm=0 / deadzone=21,11 / fast_pskip=0 / chroma_qp_offset=-3 / threads=12 / lookahead_threads=2 / sliced_threads=0 / nr=0 / decimate=1 / interlaced=0 / bluray_compat=0 / constrained_intra=0 / bframes=14 / b_pyramid=2 / b_adapt=2 / b_bias=0 / direct=3 / weightb=1 / open_gop=0 / weightp=2 / keyint=240 / keyint_min=24 / scenecut=40 / intra_refresh=0 / rc_lookahead=60 / rc=2pass / mbtree=1 / bitrate=1179 / ratetol=1.0 / qcomp=0.60 / qpmin=0 / qpmax=69 / qpstep=4 / cplxblur=20.0 / qblur=0.5 / ip_ratio=1.40 / aq=1:1.00
Язык : English
Default : Да
Forced : Нет
Аудио
Идентификатор : 2
Формат : AAC
Формат/Информация : Advanced Audio Codec
Профиль формата : HE-AAC / LC
Идентификатор кодека : A_AAC
Продолжительность : 1 ч. 23 м.
Битрейт : 72,0 Кбит/сек
Каналы : 2 канала
Расположение каналов : Front: L R
Частота : 48,0 КГц / 24,0 КГц
Частота кадров : 23,438 кадра/сек (1024 spf)
Метод сжатия : С потерями
Задержка видео : 31 мс.
Размер потока : 42,8 Мбайт (6%)
Язык : Russian
Default : Да
Forced : Нет
Текст #1
Идентификатор : 3
Формат : UTF-8
Идентификатор кодека : S_TEXT/UTF8
Идентификатор кодека/Информация : UTF-8 Plain Text
Продолжительность : 1 ч. 14 м.
Битрейт : 2 бит/сек
Count of elements : 28
Размер потока : 1,48 Кбайт (0%)
Язык : Russian
Default : Да
Forced : Да
Текст #2
Идентификатор : 4
Формат : UTF-8
Идентификатор кодека : S_TEXT/UTF8
Идентификатор кодека/Информация : UTF-8 Plain Text
Продолжительность : 1 ч. 21 м.
Битрейт : 101 бит/сек
Count of elements : 1128
Размер потока : 60,8 Кбайт (0%)
Язык : Russian
Default : Нет
Forced : Нет
Текст #3
Идентификатор : 5
Формат : UTF-8
Идентификатор кодека : S_TEXT/UTF8
Идентификатор кодека/Информация : UTF-8 Plain Text
Продолжительность : 1 ч. 21 м.
Битрейт : 58 бит/сек
Count of elements : 1063
Размер потока : 34,8 Кбайт (0%)
Язык : English
Default : Нет
Forced : Нет
Текст #4
Идентификатор : 6
Формат : UTF-8
Идентификатор кодека : S_TEXT/UTF8
Идентификатор кодека/Информация : UTF-8 Plain Text
Продолжительность : 1 ч. 22 м.
Битрейт : 69 бит/сек
Count of elements : 1383
Размер потока : 42,1 Кбайт (0%)
Язык : English
Default : Нет
Forced : Нет

Скриншоты

Релиз от:
Автор рипа: Bathory
[Профиль] [ЛС]
Показать сообщения:    

Текущее время: Сегодня 22:40

Часовой пояс: GMT



Вы не можете начинать темы
Вы не можете отвечать на сообщения
Вы не можете редактировать свои сообщения
Вы не можете удалять свои сообщения
Вы не можете голосовать в опросах
Вы не можете прикреплять файлы к сообщениям
Вы не можете скачивать файлы