Братья из Гримсби / Grimsby (2016) BDRip 1080p | iTunes

 
Автор Сообщение

достали все ®

Пол:

Стаж: 1 год 8 месяцев

Сообщений: 6515



Награды: 12 (Подробнее)

Mega Releaser 2 (Количество: 1) За внесенный вклад в развитие сайта (Количество: 1) Mega Seeder 1 (Количество: 1)
Торрент-статистика

Создавать темы 02-Июн-2016 03:15

[Цитировать]

Информация о фильме
Название: Братья из Гримсби
Оригинальное название: Grimsby
Год выхода: 2016
Жанр: боевик, комедия
Режиссер: Луи Летерье
В ролях: Саша Барон Коэн, Марк Стронг, Пенелопа Крус, Ребел Уилсон, Айла Фишер, Габури Сидибе, Аннабелль Уоллис, Иэн МакШейн, Дэвид Хэрвуд, Рикки Томлинсон
О фильме:
Сверхсекретная операция, которую выполняет образцовый спецагент, с треском провалена из-за некстати свалившегося на его голову неадекватного брата — оголтелого футбольного фаната и полного беспредельщика. Теперь герою предстоит спасти свою жизнь и вдобавок планету от нависшей над ней угрозы — практически невыполнимая задача в тандеме с вновь приобретенным родственником.

Страна: Великобритания, Австралия
Студия: Big Talk Productions, Columbia Pictures, Four by Two Films, LStar Capital, Sony Pictures Entertainment (SPE), Village Roadshow Pictures, Working Title Films
Продолжительность: 01:23:12
Перевод: Дублированный
Файл
Кодек: MPEG4 Video (H264)
Качество: BDRip 1080p | iTunes
Видео: 1920x808, 9778 Kbps, 23.976fps
Звук:
Аудио #1: Русский (АС3, 6 ch, 384 Кбит/с) Дублированный iTunes
Аудио #2: Английский (DTS, 6 ch, 1509 Кбит/с) Оригинал
Субтитры: английские

Mediainfo

Общее
Уникальный идентификатор : 211128094399595863469582906295214177795 (0x9ED5CABAA6832875863591C95A287E03)
Полное имя : C:TempGrimsby.2016.BDRip.1080p.mkv
Формат : Matroska
Версия формата : Version 2
Размер файла : 6,78 Гбайт
Продолжительность : 1 ч. 23 м.
Общий поток : 11,7 Мбит/сек
Название фильма : Grimsby.2016.BDRip.1080p
Дата кодирования : UTC 2016-06-01 20:50:16
Программа кодирования : mkvmerge v4.0.0 ('The Stars were mine') сборка от Jun 6 2010 16:18:42
Библиотека кодирования : libebml v1.0.0 + libmatroska v1.0.0
Видео
Идентификатор : 1
Формат : AVC
Формат/Информация : Advanced Video Codec
Профиль формата : High@L4.1
Параметр CABAC формата : Да
Параметр ReFrames формата : 5 кадров
Идентификатор кодека : V_MPEG4/ISO/AVC
Продолжительность : 1 ч. 23 м.
Битрейт : 9778 Кбит/сек
Ширина : 1920 пикселей
Высота : 808 пикселей
Соотношение сторон : 2,40:1
Режим частоты кадров : Постоянный
Частота кадров : 23,976 (24000/1001) кадра/сек
Цветовое пространство : YUV
Субдискретизация насыщенности : 4:2:0
Битовая глубина : 8 бит
Тип развёртки : Прогрессивная
Бит/(Пиксели*Кадры) : 0.263
Размер потока : 5,55 Гбайт (82%)
Библиотека кодирования : x264 core 148 r2665 a01e339
Настройки программы : cabac=1 / ref=5 / deblock=1:0:0 / analyse=0x3:0x113 / me=umh / subme=8 / psy=1 / psy_rd=1.00:0.00 / mixed_ref=1 / me_range=16 / chroma_me=1 / trellis=1 / 8x8dct=1 / cqm=0 / deadzone=21,11 / fast_pskip=0 / chroma_qp_offset=-2 / threads=24 / lookahead_threads=4 / sliced_threads=0 / nr=0 / decimate=1 / interlaced=0 / bluray_compat=0 / constrained_intra=0 / bframes=3 / b_pyramid=2 / b_adapt=2 / b_bias=0 / direct=3 / weightb=1 / open_gop=0 / weightp=2 / keyint=250 / keyint_min=23 / scenecut=40 / intra_refresh=0 / rc_lookahead=50 / rc=2pass / mbtree=1 / bitrate=9778 / ratetol=1.0 / qcomp=0.60 / qpmin=0 / qpmax=69 / qpstep=4 / cplxblur=20.0 / qblur=0.5 / ip_ratio=1.40 / aq=1:1.00
Язык : English
Default : Нет
Forced : Нет
Аудио #1
Идентификатор : 2
Формат : AC-3
Формат/Информация : Audio Coding 3
Расширение режима : CM (complete main)
Параметр Endianness формата : Big
Идентификатор кодека : A_AC3
Продолжительность : 1 ч. 23 м.
Вид битрейта : Постоянный
Битрейт : 384 Кбит/сек
Каналы : 6 каналов
Расположение каналов : Front: L C R, Side: L R, LFE
Частота : 48,0 КГц
Частота кадров : 31,250 кадров/сек (1536 spf)
Метод сжатия : С потерями
Размер потока : 229 Мбайт (3%)
Язык : Russian
Default : Да
Forced : Да
Аудио #2
Идентификатор : 3
Формат : DTS
Формат/Информация : Digital Theater Systems
Режим : 16
Параметр Endianness формата : Big
Идентификатор кодека : A_DTS
Продолжительность : 1 ч. 23 м.
Вид битрейта : Постоянный
Битрейт : 1509 Кбит/сек
Каналы : 6 каналов
Расположение каналов : Front: L C R, Side: L R, LFE
Частота : 48,0 КГц
Частота кадров : 93,750 кадра/сек (512 spf)
Битовая глубина : 24 бит
Метод сжатия : С потерями
Задержка видео : 11 мс.
Размер потока : 898 Мбайт (13%)
Язык : English
Default : Нет
Forced : Нет
Текст
Идентификатор : 4
Формат : UTF-8
Идентификатор кодека : S_TEXT/UTF8
Идентификатор кодека/Информация : UTF-8 Plain Text
Заголовок : English regular
Язык : English
Default : Нет
Forced : Нет
Меню
00:00:00.000 : en:00:00:00.000
00:06:54.331 : en:00:06:54.331
00:11:00.994 : en:00:11:00.994
00:16:25.735 : en:00:16:25.735
00:21:37.630 : en:00:21:37.630
00:26:43.727 : en:00:26:43.727
00:31:46.863 : en:00:31:46.863
00:36:48.706 : en:00:36:48.706
00:41:57.056 : en:00:41:57.056
00:46:54.979 : en:00:46:54.979
00:52:19.595 : en:00:52:19.595
00:57:28.487 : en:00:57:28.487
01:01:27.851 : en:01:01:27.851
01:06:16.139 : en:01:06:16.139
01:11:52.099 : en:01:11:52.099
01:16:25.873 : en:01:16:25.873

Скриншоты

[Профиль] [ЛС]
Показать сообщения:    

Текущее время: Сегодня 18:14

Часовой пояс: GMT



Вы не можете начинать темы
Вы не можете отвечать на сообщения
Вы не можете редактировать свои сообщения
Вы не можете удалять свои сообщения
Вы не можете голосовать в опросах
Вы не можете прикреплять файлы к сообщениям
Вы не можете скачивать файлы