Братья ветра / Brothers of the Wind (2015) BDRemux 1080p | L

 
Автор Сообщение

достали все ®

Пол:

Стаж: 1 год 8 месяцев

Сообщений: 6545



Награды: 12 (Подробнее)

За внесенный вклад в развитие сайта (Количество: 1) Mega Seeder 5 (Количество: 1) Mega Releaser 3 (Количество: 1)
Торрент-статистика

Создавать темы 27-Июл-2016 09:25

[Цитировать]

Информация о фильме
Название: Братья ветра
Оригинальное название: Brothers of the Wind
Год выхода: 2015
Жанр: Приключения, драма, семейный
Режиссер: Херардо Оливарес, Отмар Пенкер
В ролях: Жан Рено, Мануэль Камачо, Тобиас Моретти, Эва Куэн
О фильме:
Главный герой картины, мальчик по имени Лукас (Мануэль Камачо), живёт в горной местности. Найдя в лесу раненого птенца орла, решает излечить его сломанные крылья и научить жить в пустыне. Задача очень трудная, потому что отец мальчика не одобряет его планы, и орлёнок сначала очень настороженно относится к своему спасителю. Однако, со временем отношения Лукаса с дикой птицей превращаются в необыкновенную дружбу и приводят к увлекательным приключениям. Лукасу большую поддержку оказывает таинственный Данзер (Жан Рено), который как никто знает привычки диких животных и открывает мальчику их необычный мир...

Страна: Австрия
Студия: Terra Mater Factual Studios
Продолжительность: 01:41:36
Перевод: Любительский многоголосый (закадровый) | GreenРай
Файл
Кодек: MPEG-4
Качество: BDRemux 1080p
Видео: 1920x1080, 27.9 Мbit/s, 23.976 fps
Звук:
Аудио #01: 48 kHz, AC3, 5.1, 448 Kbps | Любительский многоголосый (закадровый) | GreenРай |
Аудио #02: 48 kHz, DTS-HD MA, 5.1, 4067 kbps | Оригинал |
Субтитры: Английские

MI

General
Unique ID : 182534399547016931555132306532315042731 (0x8952D8BA91F490129739B77F21C613AB)
Complete name : G:VideoBrothers.of.the.Wind.2015.MVO.BDREMUX.1080p.ExKinoRay.mkv
Format : Matroska
Format version : Version 4 / Version 2
File size : 22.2 GiB
Duration : 1h 37mn
Overall bit rate mode : Variable
Overall bit rate : 32.4 Mbps
Movie name : Brothers.of.the.Wind.2015.MVO.BDREMUX.1080p.ExKinoRay
Encoded date : UTC 2016-07-27 06:37:01
Writing application : mkvmerge v8.3.0 ('Over the Horizon') 64bit
Writing library : libebml v1.3.1 + libmatroska v1.4.2
Video
ID : 1
Format : AVC
Format/Info : Advanced Video Codec
Format profile : High@L4.1
Format settings, CABAC : Yes
Format settings, ReFrames : 4 frames
Codec ID : V_MPEG4/ISO/AVC
Duration : 1h 37mn
Bit rate mode : Variable
Bit rate : 27.9 Mbps
Maximum bit rate : 30.0 Mbps
Width : 1 920 pixels
Height : 1 080 pixels
Display aspect ratio : 16:9
Frame rate mode : Constant
Frame rate : 23.976 (24000/1001) fps
Color space : YUV
Chroma subsampling : 4:2:0
Bit depth : 8 bits
Scan type : Progressive
Bits/(Pixel*Frame) : 0.560
Stream size : 19.1 GiB (86%)
Language : English
Default : Yes
Forced : No
Audio #1
ID : 2
Format : AC-3
Format/Info : Audio Coding 3
Mode extension : CM (complete main)
Format settings, Endianness : Big
Codec ID : A_AC3
Duration : 1h 37mn
Bit rate mode : Constant
Bit rate : 448 Kbps
Channel(s) : 6 channels
Channel positions : Front: L C R, Side: L R, LFE
Sampling rate : 48.0 KHz
Frame rate : 31.250 fps (1536 spf)
Compression mode : Lossy
Delay relative to video : 4ms
Stream size : 314 MiB (1%)
Title : MVO
Language : Russian
Default : Yes
Forced : No
Audio #2
ID : 3
Format : DTS
Format/Info : Digital Theater Systems
Format profile : MA / Core
Mode : 16
Format settings, Endianness : Big
Codec ID : A_DTS
Duration : 1h 37mn
Bit rate mode : Variable / Constant
Bit rate : 4 067 Kbps / 1 509 Kbps
Channel(s) : 6 channels
Channel positions : Front: L C R, Side: L R, LFE
Sampling rate : 48.0 KHz
Frame rate : 93.750 fps (512 spf)
Bit depth : 24 bits
Compression mode : Lossless / Lossy
Stream size : 2.78 GiB (13%)
Title : Original
Language : English
Default : No
Forced : No
Text
ID : 4
Format : UTF-8
Codec ID : S_TEXT/UTF8
Codec ID/Info : UTF-8 Plain Text
Duration : 1h 30mn
Bit rate : 14 bps
Count of elements : 430
Stream size : 9.92 KiB (0%)
Title : Full
Language : English
Default : No
Forced : No
Menu
00:00:00.000 : en:00:00:00.000
00:09:42.540 : en:00:09:42.540
00:18:34.780 : en:00:18:34.780
00:28:05.350 : en:00:28:05.350
00:37:14.524 : en:00:37:14.524
00:47:48.532 : en:00:47:48.532
00:56:46.903 : en:00:56:46.903
01:06:20.018 : en:01:06:20.018
01:15:06.210 : en:01:15:06.210
01:22:52.634 : en:01:22:52.634
01:28:54.287 : en:01:28:54.287
01:33:38.238 : en:01:33:38.238

Скриншоты

Релиз от: Автор релиза:
[Профиль] [ЛС]
Показать сообщения:    

Текущее время: Сегодня 12:35

Часовой пояс: GMT



Вы не можете начинать темы
Вы не можете отвечать на сообщения
Вы не можете редактировать свои сообщения
Вы не можете удалять свои сообщения
Вы не можете голосовать в опросах
Вы не можете прикреплять файлы к сообщениям
Вы не можете скачивать файлы