Братство камня / Le Concile de pierre (Гийом Никлу / Guillaume Nicloux) [2006, Франция, драма, триллер, DVDRip] DUB

 
Автор Сообщение

TorrentFilm ®

Пол:

Стаж: 2 года

Сообщений: 7741



Награды: Нет

Торрент-статистика

Создавать темы 21-Авг-2015 00:06

[Цитировать]

Братство камня / Le Concile de pierre

Страна: Франция
Жанр: драма, триллер
Год выпуска: 2006
Продолжительность: 01:36:31
Перевод: Профессиональный (дублированный)
Cубтитры: нет

Режиссер: Гийом Никлу / Guillaume Nicloux
В ролях: Моника Белуччи, Катрин Денев, Мориц Блайбтрой, Сами Буажила, Эльза Зильберштайн, Николя То, Лоренцо Балдуччи, Николя Юэ, Питер Бонке, Лоран Гревиль, Йоси Оида, Паскаль Бонгар, Ив Мармион, Эрик Каравака, Элина Ловенсон
Описание: Усыновившая монгольского мальчика французская ученая, попадает вместе с ним в аварию, после чего ребенок впадает в кому. По совету таинственного немецкого доктора, который заявляет, что может вывести ее сына из комы с помощью нетрадиционных методов, она отправляется в Монголию, чтобы разузнать все о прошлом мальчика...
Качество видео: DVDRip
Формат видео: AVI
Видео: 688x304 (2.26:1), 25 fps, XviD build 73 ~1703 kbps avg, 0.33 bit/pixel
Аудио: 48 kHz, AC3 Dolby Digital, 3/2 (L,C,R,l,r) + LFE ch, ~448 kbps

MediaInfo

Общее
Полное имя : H:\Le.Concile.de pierre.2006.dvdrip_[1.46]_[teko].avi
Формат : AVI
Формат/Информация : Audio Video Interleave
Размер файла : 1,46 Гбайт
Продолжительность : 1 ч. 36 м.
Общий поток : 2161 Кбит/сек
Программа кодирования : VirtualDubMod 1.5.10.3 | www.virtualdub-fr.org || (build 2550/release)
Библиотека кодирования : VirtualDubMod build 2550/release
Видео
Идентификатор : 0
Формат : MPEG-4 Visual
Профиль формата : Advanced Simple@L5
Параметр BVOP формата : 1
Параметр QPel формата : Нет
Параметр GMC формата : Без точки перехода
Параметр матрицы формата : Выборочная
Идентификатор кодека : XVID
Идентификатор кодека/Подсказка : XviD
Продолжительность : 1 ч. 36 м.
Битрейт : 1704 Кбит/сек
Ширина : 688 пикселей
Высота : 304 пикселя
Соотношение сторон : 2,25:1
Частота кадров : 25,000 кадров/сек
Цветовое пространство : YUV
Субдискретизация насыщенности : 4:2:0
Битовая глубина : 8 бит
Тип развёртки : Прогрессивная
Метод сжатия : С потерями
Бит/(Пиксели*Кадры) : 0.326
Размер потока : 1,15 Гбайт (79%)
Библиотека кодирования : XviD 73
Аудио
Идентификатор : 1
Формат : AC-3
Формат/Информация : Audio Coding 3
Расширение режима : CM (complete main)
Параметр Endianness формата : Big
Идентификатор кодека : 2000
Продолжительность : 1 ч. 36 м.
Вид битрейта : Постоянный
Битрейт : 448 Кбит/сек
Каналы : 6 каналов
Расположение каналов : Front: L C R, Side: L R, LFE
Частота : 48,0 КГц
Битовая глубина : 16 бит
Метод сжатия : С потерями
Размер потока : 309 Мбайт (21%)
Выравнивание : Разделение по промежуткам
Продолжительность промежутка : 40 мс. (1,00 видеокадр)
Время предзагрузки промежутка : 500 мс.
Релиз группы:
--
[Профиль] [ЛС]
Показать сообщения:    

Текущее время: Сегодня 14:10

Часовой пояс: GMT



Вы не можете начинать темы
Вы не можете отвечать на сообщения
Вы не можете редактировать свои сообщения
Вы не можете удалять свои сообщения
Вы не можете голосовать в опросах
Вы не можете прикреплять файлы к сообщениям
Вы не можете скачивать файлы