(Pop-Rock, Rock'n'Roll) Браво - Навсегда - 2015 [FLAC, image +.cue, lossless]

 
Автор Сообщение

sergej644 ®

Пол:

Стаж: 4 года 11 месяцев

Сообщений: 6038

Откуда: Soviet Union



Награды: Нет

Торрент-статистика

Создавать темы 28-Янв-2016 14:23

[Цитировать]

-Браво - Навсегда-- Год издания: 2015
Страна: Russia
Жанр: Pop-Rock, Rock'n'Roll
Продолжительность: 00:50:11-Лейбл издания: Soyuz Music
Страна-выпуска диска: Russia
Номер по каталогу: SZCD 6257-15-Формат: FLAC
Битрейт аудио: Lossless
Тип рипа: image +.cue
Наличие сканов в содержимом раздачи: да
-

Трэклист


01. Перемена мест (03:14)
02. Ray Davies (03:18)
03. DJ Фантомас (03:51)
04. Навсегда (03:25)
05. Земляничный дождь (feat. Яна Блиндер) (03:47)
06. Париж (05:10)
07. 36,6 (04:09)
08. Теплый ветер (03:48)
09. Для тебя (feat. Маша Макарова) (03:56)
10. Бег (03:54)
11. Блюз прошлого лета (04:13)
12. Лунный флот (03:38)
13. Шангри-ла (03:54)
-

Лог создания рипа

Exact Audio Copy V1.0 beta 3 from 29. August 2011
EAC extraction logfile from 13. November 2015, 22:10
Браво / Навсегда
Used drive  : PIONEER BD-RW   BDR-207D   Adapter: 1  ID: 0
Read mode               : Secure
Utilize accurate stream : Yes
Defeat audio cache      : Yes
Make use of C2 pointers : No
Read offset correction                      : 667
Overread into Lead-In and Lead-Out          : No
Fill up missing offset samples with silence : Yes
Delete leading and trailing silent blocks   : No
Null samples used in CRC calculations       : Yes
Used interface                              : Native Win32 interface for Win NT & 2000
Used output format              : User Defined Encoder
Selected bitrate                : 128 kBit/s
Quality                         : High
Add ID3 tag                     : No
Command line compressor         : C:\Program Files (x86)\Exact Audio Copy\Flac\flac.exe
Additional command line options : -V -8 -T "Date=%year%" -T "Genre=%genre%" %source%
TOC of the extracted CD
     Track |   Start  |  Length  | Start sector | End sector
    ---------------------------------------------------------
        1  |  0:00.00 |  3:13.50 |         0    |    14524
        2  |  3:13.50 |  3:17.36 |     14525    |    29335
        3  |  6:31.11 |  3:50.61 |     29336    |    46646
        4  | 10:21.72 |  3:24.15 |     46647    |    61961
        5  | 13:46.12 |  3:46.28 |     61962    |    78939
        6  | 17:32.40 |  5:09.42 |     78940    |   102156
        7  | 22:42.07 |  4:08.33 |    102157    |   120789
        8  | 26:50.40 |  3:47.16 |    120790    |   137830
        9  | 30:37.56 |  3:55.09 |    137831    |   155464
       10  | 34:32.65 |  3:53.53 |    155465    |   172992
       11  | 38:26.43 |  4:12.61 |    172993    |   191953
       12  | 42:39.29 |  3:37.58 |    191954    |   208286
       13  | 46:17.12 |  3:53.38 |    208287    |   225799
Range status and errors
Selected range
     Filename D:\Браво - Навсегда (SZCD 6257-15) (2015)\Браво - Навсегда (SZCD 6257-15) (2015).wav
     Peak level 100.0 %
     Extraction speed 7.2 X
     Range quality 100.0 %
     Test CRC 44D7F673
     Copy CRC 44D7F673
     Copy OK
No errors occurred
AccurateRip summary
Track  1  not present in database
Track  2  not present in database
Track  3  not present in database
Track  4  not present in database
Track  5  not present in database
Track  6  not present in database
Track  7  not present in database
Track  8  not present in database
Track  9  not present in database
Track 10  not present in database
Track 11  not present in database
Track 12  not present in database
Track 13  not present in database
None of the tracks are present in the AccurateRip database
End of status report

Индексная карта (non-compilant .cue)

REM GENRE Rock
REM DATE 2015
REM DISCID B50BC20D
REM COMMENT ExactAudioCopy v1.0b3
PERFORMER "Браво"
TITLE "Навсегда"
FILE "Браво - Навсегда (SZCD 6257-15) (2015).flac" WAVE
  TRACK 01 AUDIO
    TITLE "Перемена мест"
    INDEX 01 00:00:00
  TRACK 02 AUDIO
    TITLE "Ray Davies"
    INDEX 01 03:13:50
  TRACK 03 AUDIO
    TITLE "DJ Фантомас"
    INDEX 01 06:31:11
  TRACK 04 AUDIO
    TITLE "Навсегда"
    INDEX 01 10:21:72
  TRACK 05 AUDIO
    TITLE "Земляничный дождь (feat. Яна Блиндер)"
    INDEX 01 13:46:12
  TRACK 06 AUDIO
    TITLE "Париж"
    INDEX 01 17:32:40
  TRACK 07 AUDIO
    TITLE "36,6"
    INDEX 01 22:42:07
  TRACK 08 AUDIO
    TITLE "Теплый ветер"
    INDEX 01 26:50:40
  TRACK 09 AUDIO
    TITLE "Для тебя (feat. Маша Макарова)"
    INDEX 01 30:37:56
  TRACK 10 AUDIO
    TITLE "Бег"
    INDEX 01 34:32:65
  TRACK 11 AUDIO
    TITLE "Блюз прошлого лета"
    INDEX 01 38:26:43
  TRACK 12 AUDIO
    TITLE "Лунный флот"
    INDEX 01 42:39:29
  TRACK 13 AUDIO
    TITLE "Шангри-ла"
    INDEX 01 46:17:12
--
[Профиль] [ЛС]
Показать сообщения:    

Текущее время: Сегодня 06:26

Часовой пояс: GMT



Вы не можете начинать темы
Вы не можете отвечать на сообщения
Вы не можете редактировать свои сообщения
Вы не можете удалять свои сообщения
Вы не можете голосовать в опросах
Вы не можете прикреплять файлы к сообщениям
Вы не можете скачивать файлы