Боцман и попугай / Выпуски 1-5 / (Михаил Каменецкий) [1982-1986 гг., мультфильм, кукольная анимация, DVB]

 
Автор Сообщение

TorrentFilm ®

Пол:

Стаж: 2 года

Сообщений: 7741



Награды: Нет

Торрент-статистика

Создавать темы 03-Янв-2016 00:04

[Цитировать]

Боцман и попугай / Выпуски 1-5
Жанр: мультфильм, кукольная анимация
Год выпуска: 1982-1986
Продолжительность: 00:47:42
Режиссёр: Михаил Каменецкий
Описание: Мультипликационный сериал из пяти выпусков о приключениях боцмана Ромы, его друга Попугая и подруги Попугая ...
1. "Боцман и попугай. 1 выпуск" 1982г. – мультипликационный фильм - эксцентрическая комедия о Попугае, который неизменно возвращается к своему хозяину.
2. "Боцман и попугай. 2 выпуск" 1983г. – мультипликационный фильм о том, как Попугай стремится при помощи разных уловок проникнуть в больницу, куда попал его друг — Боцман.
3. "Боцман и попугай. 3 выпуск" 1985г. – мультипликационный фильм с участием постоянных героев сериала - боцмана Ромы и его попугаев. Решенный в жанре эксцентрической комедии, фильм говорит о верности, преданности. Действие фильма разворачивается на киностудии, где идут съемки пиратского боевика.
4. "Боцман и попугай. 4 выпуск" 1985г. – мультипликационный фильм, продолжающий историю о приключениях прежних героев, учит ребят ценить доброту и гостеприимство.
5. "Боцман и попугай. 5 выпуск" 1986г. – мультипликационный фильм, в котором появляется новый герой - Снежный человек. Фильм решен в жанре комедии положений.
Доп. информация:

Релиз группы:
Трансляция спутникового канала: "Карусель"
Качество видео: DVB
Формат видео: MPEG-PS
Видео: MPEG2 Video, 720x576, 25 fps, 3900 kbps
Аудио: MPEG Audio, 2 сh, 48 kHz, 192 kbps

MediaInfo

General
Complete name : D:\Боцман и попугай\1c. Боцман и попугай (1982)_DVB by SLuMeP.mpg
Format : MPEG-PS
File size : 264 MiB
Duration : 9mn 9s
Overall bit rate mode : Variable
Overall bit rate : 4 028 Kbps
Writing library : (c) 1998-2010 Womble Multimedia, Inc. / MPEG Video Wizard DVD 5.0.0.114 (01/2010) / Apr 20 2010
Video
ID : 224 (0xE0)
Format : MPEG Video
Format version : Version 2
Format profile : Main@Main
Format settings, BVOP : Yes
Format settings, Matrix : Custom
Format settings, GOP : M=3, N=12
Duration : 9mn 9s
Bit rate mode : Variable
Bit rate : 3 756 Kbps
Maximum bit rate : 5 000 Kbps
Width : 720 pixels
Height : 576 pixels
Display aspect ratio : 4:3
Frame rate : 25.000 fps
Standard : PAL
Color space : YUV
Chroma subsampling : 4:2:0
Bit depth : 8 bits
Scan type : Interlaced
Scan order : Top Field First
Compression mode : Lossy
Bits/(Pixel*Frame) : 0.362
Time code of first frame : 00:00:00:00
Time code source : Group of pictures header
Stream size : 246 MiB (93%)
Writing library : (c) 1998-2010 Womble Multimedia, Inc. / MPEG Video Wizard DVD 5.0.0.114 (01/2010) / Apr 20 2010
Audio
ID : 192 (0xC0)
Format : MPEG Audio
Format version : Version 1
Format profile : Layer 2
Duration : 9mn 9s
Bit rate mode : Constant
Bit rate : 192 Kbps
Channel(s) : 2 channels
Sampling rate : 48.0 KHz
Compression mode : Lossy
Stream size : 12.6 MiB (5%)

Скриншоты

[Профиль] [ЛС]
Кто просматривает тему:

Показать сообщения:    

Текущее время: Сегодня 23:29

Часовой пояс: GMT



Вы не можете начинать темы
Вы не можете отвечать на сообщения
Вы не можете редактировать свои сообщения
Вы не можете удалять свои сообщения
Вы не можете голосовать в опросах
Вы не можете прикреплять файлы к сообщениям
Вы не можете скачивать файлы