Босиком по городу / Barefoot (Эндрю Флеминг / Andrew Fleming) [2014, США, драма, мелодрама, комедия, WEB-DLRip] MVO

 
Автор Сообщение

Создавать темы 14-Июл-2014 09:08

Босиком по городу / Barefoot
Страна: США
Жанр: драма, мелодрама, комедия
Год выпуска: 2014
Продолжительность: 01:29:33
Перевод: Профессиональный (многоголосый закадровый)
Cубтитры: нет
Оригинальная аудиодорожка: нет
Режиссер: Эндрю Флеминг / Andrew Fleming
В ролях: Эван Рэйчел Вуд, Скотт Спидман, Трит Уильямс, Кейт Бёртон, Дж.К. Симмонс, Дж. Омар Кастро, Дэвид Дженсен, Жаклин Флеминг, Эшли Борман, Рики Уэйн
Описание: Джей — гуляка и дебошир. Он не удерживается ни на одном рабочем месте, а собственная семья считает его законченным неудачником. После очередной выходки его направляют «отдать долг обществу» — поработать уборщиком в клинике для душевнобольных. Там он знакомится с пациенткой Дэйзи — обаятельной девушкой, которая выглядит вполне нормальной, но совершенно не адаптирована к окружающей действительности. Девушка быстро привязывается к Джею и даже сбегает вслед за ним из клиники. Теперь Джей должен решить, как быть дальше. С одной стороны у него есть приглашение на свадьбу брата, где его ждут вместе с девушкой, которой у него нет, с другой — Дэйзи, которая ни на шаг от него не отходит. Джей решается на аферу и отправляется на свадьбу вместе с Дэйзи…
Доп. информация:

Качество видео: WEB-DLRip
Формат видео: AVI
Видео: 720x304 (2.37:1), 23.976 fps, XviD build 50 ~1983 kbps avg, 0.38 bit/pixel
Аудио: 48 kHz, AC3 Dolby Digital, 2/0 (L,R) ch, ~192 kbps

MediaInfo

General
Complete name : C:\Bosikom.po.gorody.2014.WEBDLRip.avi
Format : AVI
Format/Info : Audio Video Interleave
File size : 1.37 GiB
Duration : 1h 29mn
Overall bit rate : 2 185 Kbps
Writing application : VirtualDubMod 1.5.10.2 (build 2540/release)
Writing library : VirtualDubMod build 2540/release
Video
ID : 0
Format : MPEG-4 Visual
Format profile : Advanced Simple@L5
Format settings, BVOP : Yes
Format settings, QPel : No
Format settings, GMC : No warppoints
Format settings, Matrix : Default (MPEG)
Codec ID : XVID
Codec ID/Hint : XviD
Duration : 1h 29mn
Bit rate : 1 984 Kbps
Width : 720 pixels
Height : 304 pixels
Display aspect ratio : 2.35:1
Frame rate : 23.976 fps
Color space : YUV
Chroma subsampling : 4:2:0
Bit depth : 8 bits
Scan type : Progressive
Compression mode : Lossy
Bits/(Pixel*Frame) : 0.378
Stream size : 1.24 GiB (91%)
Writing library : XviD 1.2.1 (UTC 2008-12-04)
Audio
ID : 1
Format : AC-3
Format/Info : Audio Coding 3
Mode extension : CM (complete main)
Format settings, Endianness : Big
Codec ID : 2000
Duration : 1h 29mn
Bit rate mode : Constant
Bit rate : 192 Kbps
Channel count : 2 channels
Channel positions : Front: L R
Sampling rate : 48.0 KHz
Bit depth : 16 bits
Compression mode : Lossy
Stream size : 123 MiB (9%)
Alignment : Split accross interleaves
Interleave, duration : 42 ms (1.00 video frame)
Interleave, preload duration : 500 ms

Скриншот c названием фильма

Скриншоты

 
Показать сообщения:    

Текущее время: Сегодня 16:57

Часовой пояс: GMT



Вы не можете начинать темы
Вы не можете отвечать на сообщения
Вы не можете редактировать свои сообщения
Вы не можете удалять свои сообщения
Вы не можете голосовать в опросах
Вы не можете прикреплять файлы к сообщениям
Вы не можете скачивать файлы