Боль осени / Güz sancisi (Томрис Гиритлиолу / Tomris Giritlioğlu) [2009, Турция, драма, исторический, DVDRip] DVO

 
Автор Сообщение

TorrentFilm ®

Пол:

Стаж: 1 год 11 месяцев

Сообщений: 7741



Награды: Нет

Торрент-статистика

Создавать темы 15-Авг-2015 00:07

[Цитировать]

Боль осени / Güz sancisi
Страна: Турция
Жанр: драма, исторический
Год выпуска: 2009
Продолжительность: 01:50:21
Перевод: Любительский (двухголосый закадровый)
Cубтитры: нет

Режиссер: Томрис Гиритлиолу / Tomris Giritlioğlu
В ролях: Берен Саат, Мурат Йылдырым, Окан Ялабык, Бельчим Билгин, Умут Курт, Кенан Баль, Зелиха Берксой, Хусейн Авни Даньял, Энгин Алкан, Сем Бендер
Описание: Сын богатого землевладельца-националиста Бехчет по желанию своего отца и благодаря его связям окунается в политическую жизнь. Пусть некоторые вещи в мире и не соответствуют его моральным нормам, но в целом он находит правильной свою националистическую позицию. Бехчет верит, что турецкая нация взята в осаду Западом, ясный пример чему события на Кипре. Посреди всего этого политического, а также благодаря отцу еще и личного напряжения он влюбляется в свою соседку гречанку Элену, проститутку для чиновников высшего ранга. А между тем приближается 6 сентября 1955 года, день, когда случился Стамбульский погром, направленный против греков и бывший ответной акцией населения на притеснения турок-киприотов и на то, что в дом Ататюрка в Салониках была брошена бомба…
Качество видео: DVDRip
Формат видео: AVI
Видео: 704x400 (1.76:1), 25 fps, XviD build 73 ~1687 kbps avg, 0.24 bit/pixel
Аудио: 48 kHz, AC3 Dolby Digital, 2/0 (L,R) ch, ~192 kbps

MediaInfo

Общее
Полное имя : H:\Guz.sancisi.2009.dvdrip_[1.46]_[teko].avi
Формат : AVI
Формат/Информация : Audio Video Interleave
Размер файла : 1,46 Гбайт
Продолжительность : 1 ч. 50 м.
Общий поток : 1890 Кбит/сек
Программа кодирования : VirtualDubMod 1.5.10.3 | www.virtualdub-fr.org || (build 2550/release)
Библиотека кодирования : VirtualDubMod build 2550/release
Видео
Идентификатор : 0
Формат : MPEG-4 Visual
Профиль формата : Advanced Simple@L5
Параметр BVOP формата : 1
Параметр QPel формата : Нет
Параметр GMC формата : Без точки перехода
Параметр матрицы формата : Выборочная
Идентификатор кодека : XVID
Идентификатор кодека/Подсказка : XviD
Продолжительность : 1 ч. 50 м.
Битрейт : 1688 Кбит/сек
Ширина : 704 пикселя
Высота : 400 пикселей
Соотношение сторон : 16:9
Частота кадров : 25,000 кадров/сек
Цветовое пространство : YUV
Субдискретизация насыщенности : 4:2:0
Битовая глубина : 8 бит
Тип развёртки : Прогрессивная
Метод сжатия : С потерями
Бит/(Пиксели*Кадры) : 0.240
Размер потока : 1,30 Гбайт (89%)
Библиотека кодирования : XviD 73
Аудио
Идентификатор : 1
Формат : AC-3
Формат/Информация : Audio Coding 3
Расширение режима : CM (complete main)
Параметр Endianness формата : Big
Идентификатор кодека : 2000
Продолжительность : 1 ч. 50 м.
Вид битрейта : Постоянный
Битрейт : 192 Кбит/сек
Каналы : 2 канала
Расположение каналов : Front: L R
Частота : 48,0 КГц
Битовая глубина : 16 бит
Метод сжатия : С потерями
Размер потока : 152 Мбайт (10%)
Выравнивание : Разделение по промежуткам
Продолжительность промежутка : 40 мс. (1,00 видеокадр)
Время предзагрузки промежутка : 500 мс.
Релиз группы:
--
[Профиль] [ЛС]

Создавать темы 12-Июн-2016 08:13 (спустя 9 месяцев 28 дней)

Топик был перенесен из форума Фильмы 2011 года в форум Фильмы 2009 года
Russian Mafia
 
Кто просматривает тему:

Показать сообщения:    

Текущее время: Сегодня 18:16

Часовой пояс: GMT



Вы не можете начинать темы
Вы не можете отвечать на сообщения
Вы не можете редактировать свои сообщения
Вы не можете удалять свои сообщения
Вы не можете голосовать в опросах
Вы не можете прикреплять файлы к сообщениям
Вы не можете скачивать файлы