Большой (2016) DVDRip | Лицензия

 
Автор Сообщение

BOSS ®

Пол:

Стаж: 2 года 11 месяцев

Сообщений: 7139

Откуда: ODESSA



Награды: 20 (Подробнее)

За внесенный вклад в развитие сайта (Количество: 1) Top Keeper 3 (Количество: 1) Mega Seeder 2 (Количество: 1)
Торрент-статистика

Создавать темы 14-Сен-2017 15:24

[Цитировать]

Информация о фильме
Название: Большой
Год выхода: 2016
Жанр: Драма
Режиссер: Валерий Тодоровский
В ролях: Алиса Фрейндлих, Валентина Теличкина, Александр Домогаров, Николя Ле Риш, Маргарита Симонова, Екатерина Самуйлина, Анна Исаева, Анастасия Плотникова, Анастасия Прокофьева, Анна Тарасенко
О фильме:
Юная и необычайно талантливая танцовщица Юля Ольшанская из маленького шахтерского городка вытягивает «счастливый билет»: её замечает бывший артист балета Потоцкий и прочит будущее великой балерины, достойной главной сцены страны. Однако для того, чтобы стать бриллиантом, любому, даже самому выдающемуся алмазу, требуется огранка, и путь на легендарные подмостки Большого театра для Юли лежит через стены балетной школы, где опеку над непокорной провинциалкой берет еще более своенравная преподавательница Галина Михайловна Белецкая. Превращение в приму потребует невероятного самоотречения, и Юля на собственном опыте должна будет убедиться, что большой балет — это не только белизна пачек, золото лож и скольжение шелковых лент. Но никакие препятствия не остановят того, у кого есть Большая Мечта.

Страна: Россия
Студия: Продюсерская компания Валерия Тодоровского
Продолжительность: 02:06:15
Перевод: Не требуется | Лицензия R5
Файл
Качество: DVDRip
Кодек: XviD
Видео: 720x304 (2,35:1), 25 fps, XviD ~ 2016 kbps avg, 0.368 bit/pixel
Аудио: АС3, 48,0 kHz, 6 ch, ~448.00 kbps avg | русский |
Субтитры: Отсутствуют

Инфо-файл

Общее
Полное имя : Bolshoy.2016.O.DVDRip.2.18Gb.avi
Формат : AVI
Формат/Информация : Audio Video Interleave
Размер файла : 2,18 Гбайт
Продолжительность : 2 ч. 6 м.
Общий поток : 2476 Кбит/сек
Программа кодирования : VirtualDubMod 1.5.10.3 (build 2550/release)
Библиотека кодирования : VirtualDubMod build 2550/release
Видео
Идентификатор : 0
Формат : MPEG-4 Visual
Профиль формата : Advanced Simple@L5
Параметр BVOP формата : 2
Параметр QPel формата : Нет
Параметр GMC формата : Без точки перехода
Параметр матрицы формата : Выборочная
Идентификатор кодека : XVID
Идентификатор кодека/Подсказка : XviD
Продолжительность : 2 ч. 6 м.
Битрейт : 2016 Кбит/сек
Ширина : 720 пикселей
Высота : 304 пикселя
Соотношение сторон : 2,35:1
Частота кадров : 25,000 кадров/сек
Цветовое пространство : YUV
Субдискретизация насыщенности : 4:2:0
Битовая глубина : 8 бит
Тип развёртки : Прогрессивная
Метод сжатия : С потерями
Бит/(Пиксели*Кадры) : 0.368
Размер потока : 1,78 Гбайт (81%)
Библиотека кодирования : XviD 73
Аудио
Идентификатор : 1
Формат : AC-3
Формат/Информация : Audio Coding 3
Параметр Endianness формата : Big
Идентификатор кодека : 2000
Продолжительность : 2 ч. 6 м.
Вид битрейта : Постоянный
Битрейт : 448 Кбит/сек
Каналы : 6 каналов
Расположение каналов : Front: L C R, Side: L R, LFE
Частота : 48,0 КГц
Частота кадров : 31,250 кадров/сек (1536 spf)
Битовая глубина : 16 бит
Метод сжатия : С потерями
Размер потока : 405 Мбайт (18%)
Выравнивание : Разделение по промежуткам
Продолжительность промежутка : 40 мс. (1,00 видеокадр)
Время предзагрузки промежутка : 500 мс.

Скриншоты

[Профиль] [ЛС]
Кто просматривает тему:

Форум Тема Автор Размер
Cборники 70х-80х-90х (Ретро) (Pop, Disco) VA - Самая Большая Дискотека 300 хитов - 2015, MP3, 320 kbps Magnat 2.66 GB
Rock (Rock) Пикник - Большая игра (3CD) - 2015 [FLAC, image +.cue, lossless] sergej644 1.19 GB
BBC BBC: Большое железнодорожное путешествие по континенту / Great Continental Railway Journeys [сезон 4 серии 1-6 из 6] (Dave Minchin) [2015 г., Документальный, история, путешествия, HDTVRip 720p] skorpionN 8.85 GB
BBC BBC: Преступники Британии. Разбойники с большой дороги, пираты и мошенники / Britain's Outlaws. Highwaymen, Pirates and Rogues [серии 1-3 из 3] (Andy Hall, Matthew Thomas, Gerry Dawson) [201... skorpionN 5.42 GB
Доисторический мир BBC: Прогулки с динозаврами: Баллада о большом Але (спецвыпуск) / Walking With Dinosaurs: The Ballad Of Big Al [серии 1-2 из 2] (Кейт Бартлетт, Майкл Олмерт) [2000 г., Документальный, и... skorpionN 1.97 GB
Discovery Discovery. Большая нефть Ирака / Mega oil Iraq [серии 1-4 из 4] (Дэвид Херман) [2015 г., Документальный, познавательный, HDTVRip 720p] ZeNArD 1.85 GB
History History: Большая история / Big History (Джеймс Грант Голдин / James Grant Goldin) [2013, Документально-постановочный, история, HDTVRip 720p] TorrentFilm 13.56 GB
Разное LuckyPatcher 4.4.6 - Патчер к большинству программ и игр (15.08.14) [Ru/Multi] sergej644 4 MB
Показать сообщения:    

Текущее время: Сегодня 17:34

Часовой пояс: GMT



Вы не можете начинать темы
Вы не можете отвечать на сообщения
Вы не можете редактировать свои сообщения
Вы не можете удалять свои сообщения
Вы не можете голосовать в опросах
Вы не можете прикреплять файлы к сообщениям
Вы не можете скачивать файлы