Большой Тылл / Suur Toll (Рейн Раамат / Rein Raamat) [1980, Экранизация эпоса, TeleSynch] [Русская версия] Dub

 
Автор Сообщение

TorrentFilm ®

Пол:

Стаж: 2 года 8 месяцев

Сообщений: 7764



Награды: Нет

Торрент-статистика

Создавать темы 03-Янв-2016 00:05

[Цитировать]

Большой Тылл / Suur Tõll
Страна: СССР/Эстония
Жанр: Экранизация эпоса
Продолжительность: 00:14:02
Год выпуска: 1980
Перевод: Профессиональный (дублированный)
Русские субтитры: нет
Режиссёр: Рейн Раамат
Описание: Экранизация эстонского эпоса о великане Тылле
Доп. информация: ВНИМАНИЕ данная раздача является русской версией мультфильма
Качество: TeleSynch
Формат: AVI
Видео: 720x576 (4:3) @ 768x576, 25.000 fps, MPEG-2 Video, ~5876 Kbps, 0.567 bits/pixel
Аудио: Русский, 48.0 KHz, AC3, 1 ch, 192 Kbps
Субтитры: нет

MedaInfo

GeneralComplete name : Большой Тылл (Талиннфильм) 1980.mpgFormat : MPEG-PSFile size : 621 MiBDuration : 14mn 1sOverall bit rate mode : VariableOverall bit rate : 6 191 Kbps
VideoID : 224 (0xE0)Format : MPEG VideoFormat version : Version 2Format profile : Main@MainFormat settings, BVOP : YesFormat settings, Matrix : DefaultFormat settings, GOP : VariableDuration : 14mn 1sBit rate mode : VariableBit rate : 5 876 KbpsMaximum bit rate : 9 400 KbpsWidth : 720 pixelsHeight : 576 pixelsDisplay aspect ratio : 4:3Frame rate : 25.000 fpsStandard : PALColor space : YUVChroma subsampling : 4:2:0Bit depth : 8 bitsScan type : InterlacedScan order : Top Field FirstCompression mode : LossyBits/(Pixel*Frame) : 0.567Time code of first frame : 00:00:00:00Time code source : Group of pictures headerStream size : 590 MiB (95%)Color primaries : BT.601 PALTransfer characteristics : BT.470 System B, BT.470 System GMatrix coefficients : BT.601
AudioID : 189 (0xBD)-128 (0x80)Format : AC-3Format/Info : Audio Coding 3Mode extension : CM (complete main)Format settings, Endianness : BigMuxing mode : DVD-VideoDuration : 14mn 1sBit rate mode : ConstantBit rate : 192 KbpsChannel(s) : 1 channelChannel positions : Front: CSampling rate : 48.0 KHzBit depth : 16 bitsCompression mode : LossyStream size : 19.3 MiB (3%)

Скриншоты

[Профиль] [ЛС]
Кто просматривает тему:

Форум Тема Автор Размер
Cборники 70х-80х-90х (Ретро) (Pop, Disco) VA - Самая Большая Дискотека 300 хитов - 2015, MP3, 320 kbps Magnat 2.66 GB
Rock (Rock) Пикник - Большая игра (3CD) - 2015 [FLAC, image +.cue, lossless] sergej644 1.19 GB
BBC BBC: Большое железнодорожное путешествие по континенту / Great Continental Railway Journeys [сезон 4 серии 1-6 из 6] (Dave Minchin) [2015 г., Документальный, история, путешествия, HDTVRip 720p] skorpionN 8.85 GB
BBC BBC: Преступники Британии. Разбойники с большой дороги, пираты и мошенники / Britain's Outlaws. Highwaymen, Pirates and Rogues [серии 1-3 из 3] (Andy Hall, Matthew Thomas, Gerry Dawson) [201... skorpionN 5.42 GB
Доисторический мир BBC: Прогулки с динозаврами: Баллада о большом Але (спецвыпуск) / Walking With Dinosaurs: The Ballad Of Big Al [серии 1-2 из 2] (Кейт Бартлетт, Майкл Олмерт) [2000 г., Документальный, и... skorpionN 1.97 GB
Discovery Discovery. Большая нефть Ирака / Mega oil Iraq [серии 1-4 из 4] (Дэвид Херман) [2015 г., Документальный, познавательный, HDTVRip 720p] ZeNArD 1.85 GB
History History: Большая история / Big History (Джеймс Грант Голдин / James Grant Goldin) [2013, Документально-постановочный, история, HDTVRip 720p] TorrentFilm 13.56 GB
Разное LuckyPatcher 4.4.6 - Патчер к большинству программ и игр (15.08.14) [Ru/Multi] sergej644 4 MB
Показать сообщения:    

Текущее время: Сегодня 10:34

Часовой пояс: GMT



Вы не можете начинать темы
Вы не можете отвечать на сообщения
Вы не можете редактировать свои сообщения
Вы не можете удалять свои сообщения
Вы не можете голосовать в опросах
Вы не можете прикреплять файлы к сообщениям
Вы не можете скачивать файлы