Большой куш / Snatch (Гай Ричи / Guy Ritchie) [2000, Триллер, криминал, BD>DVD5 (Custom)] MVO + AVO (Гоблин) + Original + Rus, En sub

 
Автор Сообщение

sergej644 ®

Пол:

Стаж: 4 года 11 месяцев

Сообщений: 6038

Откуда: Soviet Union



Награды: Нет

Торрент-статистика

Создавать темы 21-Дек-2015 15:12

[Цитировать]

Большой куш / Snatch--Страна: США, Великобритания
Год выпуска: 2000
Жанр: Триллер, криминал
Продолжительность: 01:42:40--Перевод: Профессиональный (Многоголосый) СТС / Авторский одноголосный (Гоблин)
Cубтитры: английские, русские
Оригинальная аудиодорожка: английская--Режиссер:
Гай Ричи / Guy Ritchie
В ролях:
Джейсон Стэйтем (Jason Statham), Брэд Питт (Brad Pitt), Бенисио Дель Торо (Benicio Del Toro), Стивен Грэм (Stephen Graham), Алан Форд (Alan Ford), Деннис Фарина (Dennis Farina), Раде Шербеджия (Rade Serbedzija), Винни Джонс (Vinnie Jones), Джейсон Флеминг (Jason Flemyng), Майк Рейд (Mike Reid)--Описание:Четырехпалый Френки должен был переправить краденный алмаз из Англии в США своему боссу Эви. Но вместо этого герой попадает в эпицентр больших неприятностей. Сделав ставку на подпольном боксерском поединке, Френки попадает в круговорот весьма нежелательных событий.
Вокруг героя и его груза разворачивается сложная интрига с участием множества колоритных персонажей лондонского дна — русского гангстера, троих незадачливых грабителей, хитрого боксера и угрюмого громилы грозного мафиози. Каждый норовит в одиночку сорвать Большой Куш. А кончается все неожиданным и остроумным финалом.
--Доп. информация: Спасибо AlexD555 за инструкцию! Так же спасибо товарищам samsonq и ZVNV--Меню: русское, главное анимированое, озвученое
Сэмпл: http://multi-up.com/650165-Тип релиза: DVD5
Контейнер: DVD-Video
Видео: NTSC 16:9 (720x480) VBR, Auto Letterboxed
Аудио 1: English AC3, 5.1 / 48 kHz / 448 kbps Orig
Аудио 2: Russian AC3, 5.1 / 48 kHz / 448 kbps MVO
Аудио 3: Russian AC3, 5.1 / 48 kHz / 384 kbps AVO (присутствует ненормативная лексика)

MediaInfo

General
Complete name : D:\Фильмы\Bolshoj.kush.2000.DVD5\VIDEO_TS\VTS_01_1.VOB
Format : MPEG-PS
File size : 1 024 MiB
Duration : 24mn 7s
Overall bit rate : 5 935 Kbps
Video
ID : 224 (0xE0)
Format : MPEG Video
Format version : Version 2
Format profile : Main@Main
Format settings, BVOP : Yes
Format settings, Matrix : Custom
Duration : 24mn 7s
Bit rate mode : Variable
Bit rate : 4 536 Kbps
Maximum bit rate : 8 450 Kbps
Width : 720 pixels
Height : 480 pixels
Display aspect ratio : 16:9
Frame rate : 23.976 fps
Standard : NTSC
Color space : YUV
Chroma subsampling : 4:2:0
Bit depth : 8 bits
Scan type : Progressive
Scan order : 2:3 Pulldown
Compression mode : Lossy
Bits/(Pixel*Frame) : 0.547
Stream size : 783 MiB (76%)
Audio #1
ID : 189 (0xBD)-128 (0x80)
Format : AC-3
Format/Info : Audio Coding 3
Mode extension : CM (complete main)
Muxing mode : DVD-Video
Duration : 24mn 7s
Bit rate mode : Constant
Bit rate : 448 Kbps
Channel(s) : 6 channels
Channel positions : Front: L C R, Side: L R, LFE
Sampling rate : 48.0 KHz
Bit depth : 16 bits
Compression mode : Lossy
Stream size : 77.3 MiB (8%)
Audio #2
ID : 189 (0xBD)-129 (0x81)
Format : AC-3
Format/Info : Audio Coding 3
Mode extension : CM (complete main)
Muxing mode : DVD-Video
Duration : 24mn 7s
Bit rate mode : Constant
Bit rate : 448 Kbps
Channel(s) : 6 channels
Channel positions : Front: L C R, Side: L R, LFE
Sampling rate : 48.0 KHz
Bit depth : 16 bits
Compression mode : Lossy
Stream size : 77.3 MiB (8%)
Audio #3
ID : 189 (0xBD)-130 (0x82)
Format : AC-3
Format/Info : Audio Coding 3
Mode extension : CM (complete main)
Muxing mode : DVD-Video
Duration : 24mn 7s
Bit rate mode : Constant
Bit rate : 384 Kbps
Channel(s) : 6 channels
Channel positions : Front: L C R, Side: L R, LFE
Sampling rate : 48.0 KHz
Bit depth : 16 bits
Compression mode : Lossy
Stream size : 66.2 MiB (6%)
Text #1
ID : 189 (0xBD)-32 (0x20)
Format : RLE
Format/Info : Run-length encoding
Muxing mode : DVD-Video
Text #2
ID : 189 (0xBD)-33 (0x21)
Format : RLE
Format/Info : Run-length encoding
Muxing mode : DVD-Video
Menu

DVDInfo

Title: Bolshoj.kush.2000.DVD5
Size: 4.32 Gb ( 4 529 902,00 KBytes ) - DVD-5
Enabled regions: 1, 2, 3, 4, 5, 6, 7, 8
VTS_01 :
Play Length: 01:42:40
Video: NTSC 16:9 (720x480) VBR, Auto Letterboxed
Audio:
English (Dolby AC3, 6 ch)
Russian (Dolby AC3, 6 ch)
Russian (Dolby AC3, 6 ch)
Subtitles:
English
Russian
* Menus Information *
VIDEO_TS Menu
Video:
NTSC 4:3 (720x480) VBR
English Language Unit :
Title Menu
VTS_01 Menu
Video:
NTSC 16:9 (720x480) VBR
Auto Letterboxed
Audio:
Not specified (Dolby AC3, 2 ch)
English Language Unit :
Root Menu

Программы, используемые при создании релиза

Видео
ProCoder 3 - конвертация видео
AviSynth - обработка видео
DGDecodeNV - индексирование
Програмы для разборки ремукса/DVD
tsMuxeR - разборка ремукса
Работа со звуком
TranzcodeGUI - извлечение WAV
Sonic Foundry Soft Encode - конвертация из формата WAV в AC3
Работа с меню и реавторинг
DVD-lab PRO 2 - реавторинг диска
Adobe Photoshop - редактирование меню

Скрипт

LoadPlugin("C:\Documents and Settings\Mega\Рабочий стол\BD-DVD\DGDecodeNV\DGDecodeNV.dll")
DGSource("project.dgi")
LoadPlugin("C:\Documents and Settings\Mega\Рабочий стол\BD-DVD\autoyuy2_101\AutoYUY2.dll")
AutoYUY2()
LoadPlugin("C:\Documents and Settings\Mega\Рабочий стол\BD-DVD\ColorMatrix\ColorMatrix.dll")
ColorMatrix(mode="Rec.709->Rec.601", inputFR=false, clamp=0)
AssumeFPS("ntsc_film")
BicubicResize(720, 480, 0, 0.5)
AddBorders (0,0,0,0)

-
-

Скриншоты меню

Скриншоты

[Профиль] [ЛС]
Кто просматривает тему:

Форум Тема Автор Размер
Cборники 70х-80х-90х (Ретро) (Pop, Disco) VA - Самая Большая Дискотека 300 хитов - 2015, MP3, 320 kbps Magnat 2.66 GB
Rock (Rock) Пикник - Большая игра (3CD) - 2015 [FLAC, image +.cue, lossless] sergej644 1.19 GB
BBC BBC: Большое железнодорожное путешествие по континенту / Great Continental Railway Journeys [сезон 4 серии 1-6 из 6] (Dave Minchin) [2015 г., Документальный, история, путешествия, HDTVRip 720p] skorpionN 8.85 GB
BBC BBC: Преступники Британии. Разбойники с большой дороги, пираты и мошенники / Britain's Outlaws. Highwaymen, Pirates and Rogues [серии 1-3 из 3] (Andy Hall, Matthew Thomas, Gerry Dawson) [201... skorpionN 5.42 GB
History History: Большая история / Big History (Джеймс Грант Голдин / James Grant Goldin) [2013, Документально-постановочный, история, HDTVRip 720p] TorrentFilm 13.56 GB
Разное LuckyPatcher 4.4.6 - Патчер к большинству программ и игр (15.08.14) [Ru/Multi] sergej644 4 MB
Nat Geo Wild Nat Geo Wild: Жизнь на Большом Барьерном рифе / Life on the Reef [серии 1-3 из 3] (Карина Холден / Karina Holden) [2014 г., Документальный, научно-познавательный, HDRip-AVC 720p] skorpionN 3.14 GB
Nat Geo Wild Nat Geo Wild: Национальные парки Америки. Большой каньон / America's National Parks. Grand Canyon [сезон 1 серия 5](Henry M. Mix, Yann Sochaczewski) [2015 г., Документальный, природа, фл... skorpionN 1.53 GB
Показать сообщения:    

Текущее время: Сегодня 04:17

Часовой пояс: GMT



Вы не можете начинать темы
Вы не можете отвечать на сообщения
Вы не можете редактировать свои сообщения
Вы не можете удалять свои сообщения
Вы не можете голосовать в опросах
Вы не можете прикреплять файлы к сообщениям
Вы не можете скачивать файлы