Большой Босс / Tang shan da xiong (Вэй Ло, Чиа-хсианг Ву) [1971 г., боевик, триллер, драма, криминал] BDRemux 1080

 
Автор Сообщение

Magnat ®

Пол:

Стаж: 1 год 11 месяцев

Сообщений: 1268

Откуда: Москва



Награды: 7 (Подробнее)

Top Releaser 2 (Количество: 1) Mega Releaser 1 (Количество: 1) Mega Seeder 1 (Количество: 1)
Торрент-статистика

Создавать темы 07-Янв-2015 16:09

[Цитировать]

Большой Босс / Tang shan da xiong
Год выпуска: 1971
Страна: Гонконг
Жанр: боевик, триллер, драма, криминал
Продолжительность: 01:39:41
Перевод: Профессиональный (многоголосый, закадровый)
Режиссер: Вэй Ло, Чиа-хсианг Ву

В ролях: Брюс Ли, Мария Йи, Джеймс Тьен, Инь-Чиэ Хань, Мэрлин Баутиста, Тони Лю, Куин Ли, Нора Миао, Сань Чинь, Чи Чен

Описание: Скромный паренёк из Гонконга Чен Чао-Ан приезжает в Таиланд к своим родственникам, чтобы те помогли ему с работой. Он устраивается на фабрику по производству льда.


Формат Видео: BDRemux, MKV, H.264,
Формат Аудио: АС3/DTS/DTS-HD(MA)
Видео: 1920x1080p (16:9), 23.976 fps, AVC MPEG-4 (x264), High@L4.1 ~ 35.0 Mbps
Аудио: 48 kHz, (DTS), 6 ch. ~ 755 kbps, 24-bit [Профессиональный (многоголосый, закадровый) Superbit ]
Аудио#2: Русский: 48 kHz, (АС-3), 2 ch. ~ 192 kbps [Профессиональный (многоголосый, закадровый) ]
Аудио#3: Русский: 48 kHz, (АС-3), 2 ch. ~ 192 kbps [Авторский (одноголосый) В. Горчаков ]
Аудио#4: Русский: 48 kHz, (АС-3), 2 ch. ~ 192 kbps [Авторский (одноголосый) Ю. Живов ]
Аудио#5: Русский 48 kHz, DTS-HD (MA), 8 ch, ~ Unknown, 16-bit (DTS Core: 5.1, 48 kHz, 1509 kbps, 16-bit) [Авторский (одноголосый) В. Королев]
Аудио#6: Английский: 48 kHz, DTS-HD (MA), 8 ch, ~ Unknown, 16-bit (DTS Core: 5.1, 48 kHz, 1509 kbps, 16-bit) [Оригинал]

Mediainfo

General
Unique ID : 180606580479162789170938925795291529343 (0x87DF8FE90CF59103B69FA2288855807F)
Complete name : D:\Большой босс BDRemux..mkv
Format : Matroska
Format version : Version 2
File size : 24.1 GiB
Duration : 1h 39mn
Overall bit rate mode : Variable
Overall bit rate : 34.5 Mbps
Movie name : ELiTE
Encoded date : UTC 2012-01-20 19:00:59
Writing application : mkvmerge v5.0.1 ('Es ist Sommer') built on Oct 24 2011 19:45:06
Writing library : libebml v1.2.2 + libmatroska v1.3.0
Video
ID : 1
Format : AVC
Format/Info : Advanced Video Codec
Format profile : High@L4.1
Format settings, CABAC : Yes
Format settings, ReFrames : 4 frames
Format settings, GOP : M=3, N=24
Codec ID : V_MPEG4/ISO/AVC
Duration : 1h 39mn
Bit rate mode : Variable
Maximum bit rate : 35.0 Mbps
Width : 1 920 pixels
Height : 1 080 pixels
Display aspect ratio : 16:9
Frame rate mode : Constant
Frame rate : 23.976 fps
Standard : NTSC
Color space : YUV
Chroma subsampling : 4:2:0
Bit depth : 8 bits
Scan type : Progressive
Default : Yes
Forced : No
Color primaries : BT.709
Transfer characteristics : BT.709
Matrix coefficients : BT.709
Audio #1
ID : 2
Format : DTS
Format/Info : Digital Theater Systems
Mode : 16
Format settings, Endianness : Big
Codec ID : A_DTS
Duration : 1h 39mn
Bit rate mode : Constant
Bit rate : 755 Kbps
Channel(s) : 6 channels
Channel positions : Front: L C R, Side: L R, LFE
Sampling rate : 48.0 KHz
Bit depth : 24 bits
Compression mode : Lossy
Stream size : 538 MiB (2%)
Title : MVO - SUPERBIT
Language : Russian
Default : No
Forced : No
Audio #2
ID : 3
Format : AC-3
Format/Info : Audio Coding 3
Mode extension : CM (complete main)
Format settings, Endianness : Big
Codec ID : A_AC3
Duration : 1h 39mn
Bit rate mode : Constant
Bit rate : 192 Kbps
Channel(s) : 2 channels
Channel positions : Front: L R
Sampling rate : 48.0 KHz
Bit depth : 16 bits
Compression mode : Lossy
Stream size : 137 MiB (1%)
Title : MVO
Language : Russian
Default : No
Forced : No
Audio #3
ID : 4
Format : AC-3
Format/Info : Audio Coding 3
Mode extension : CM (complete main)
Format settings, Endianness : Big
Codec ID : A_AC3
Duration : 1h 39mn
Bit rate mode : Constant
Bit rate : 192 Kbps
Channel(s) : 2 channels
Channel positions : Front: L R
Sampling rate : 48.0 KHz
Bit depth : 16 bits
Compression mode : Lossy
Stream size : 137 MiB (1%)
Title : VO - Gorchakov
Language : Russian
Default : No
Forced : No
Audio #4
ID : 5
Format : AC-3
Format/Info : Audio Coding 3
Mode extension : CM (complete main)
Format settings, Endianness : Big
Codec ID : A_AC3
Duration : 1h 39mn
Bit rate mode : Constant
Bit rate : 192 Kbps
Channel(s) : 2 channels
Channel positions : Front: L R
Sampling rate : 48.0 KHz
Bit depth : 16 bits
Compression mode : Lossy
Stream size : 137 MiB (1%)
Title : VO - Jivov
Language : Russian
Default : No
Forced : No
Audio #5
ID : 6
Format : DTS
Format/Info : Digital Theater Systems
Format profile : MA / Core
Mode : 16
Format settings, Endianness : Big
Codec ID : A_DTS
Duration : 1h 39mn
Bit rate mode : Variable
Bit rate : Unknown / 1 509 Kbps
Channel(s) : 8 channels / 6 channels
Channel positions : Front: L C R, Side: L R, Back: L R, LFE / Front: L C R, Side: L R, LFE
Sampling rate : 48.0 KHz
Bit depth : 16 bits
Compression mode : Lossless / Lossy
Title : VO - Korolev
Language : Russian
Default : No
Forced : No
Audio #6
ID : 7
Format : DTS
Format/Info : Digital Theater Systems
Format profile : MA / Core
Mode : 16
Format settings, Endianness : Big
Codec ID : A_DTS
Duration : 1h 39mn
Bit rate mode : Variable
Bit rate : Unknown / 1 509 Kbps
Channel(s) : 8 channels / 6 channels
Channel positions : Front: L C R, Side: L R, Back: L R, LFE / Front: L C R, Side: L R, LFE
Sampling rate : 48.0 KHz
Bit depth : 16 bits
Compression mode : Lossless / Lossy
Title : Original
Language : Chinese
Default : Yes
Forced : No
Text #1
ID : 8
Format : UTF-8
Codec ID : S_TEXT/UTF8
Codec ID/Info : UTF-8 Plain Text
Title : Full
Language : Russian
Default : Yes
Forced : No
Text #2
ID : 9
Format : UTF-8
Codec ID : S_TEXT/UTF8
Codec ID/Info : UTF-8 Plain Text
Title : Full
Language : English
Default : No
Forced : No

Скриншоты



Последний раз редактировалось: Magnat (2015-01-07 17:59), всего редактировалось 2 раз(а)
[Профиль] [ЛС]

sergej644

Пол:

Стаж: 4 года 11 месяцев

Сообщений: 6046

Откуда: Soviet Union



Награды: Нет

Торрент-статистика

Создавать темы 07-Янв-2015 17:12 (спустя 1 час 3 минуты)

[Цитировать]

Скриншоты в тэг "миниатюра"
[th]прямая ссылка на скриншот[/th]
[Профиль] [ЛС]
Кто просматривает тему:

Форум Тема Автор Размер
Cборники 70х-80х-90х (Ретро) (Pop, Disco) VA - Самая Большая Дискотека 300 хитов - 2015, MP3, 320 kbps Magnat 2.66 GB
Rock (Rock) Пикник - Большая игра (3CD) - 2015 [FLAC, image +.cue, lossless] sergej644 1.19 GB
BBC BBC: Большое железнодорожное путешествие по континенту / Great Continental Railway Journeys [сезон 4 серии 1-6 из 6] (Dave Minchin) [2015 г., Документальный, история, путешествия, HDTVRip 720p] skorpionN 8.85 GB
BBC BBC: Преступники Британии. Разбойники с большой дороги, пираты и мошенники / Britain's Outlaws. Highwaymen, Pirates and Rogues [серии 1-3 из 3] (Andy Hall, Matthew Thomas, Gerry Dawson) [201... skorpionN 5.42 GB
History History: Большая история / Big History (Джеймс Грант Голдин / James Grant Goldin) [2013, Документально-постановочный, история, HDTVRip 720p] TorrentFilm 13.56 GB
Разное LuckyPatcher 4.4.6 - Патчер к большинству программ и игр (15.08.14) [Ru/Multi] sergej644 4 MB
Nat Geo Wild Nat Geo Wild: Жизнь на Большом Барьерном рифе / Life on the Reef [серии 1-3 из 3] (Карина Холден / Karina Holden) [2014 г., Документальный, научно-познавательный, HDRip-AVC 720p] skorpionN 3.14 GB
Nat Geo Wild Nat Geo Wild: Национальные парки Америки. Большой каньон / America's National Parks. Grand Canyon [сезон 1 серия 5](Henry M. Mix, Yann Sochaczewski) [2015 г., Документальный, природа, фл... skorpionN 1.53 GB
Показать сообщения:    

Текущее время: Сегодня 12:08

Часовой пояс: GMT



Вы не можете начинать темы
Вы не можете отвечать на сообщения
Вы не можете редактировать свои сообщения
Вы не можете удалять свои сообщения
Вы не можете голосовать в опросах
Вы не можете прикреплять файлы к сообщениям
Вы не можете скачивать файлы