Большое приключение Рейнджера / Bark Ranger (Дункан Кристи / Duncan Christie) [2015, Канада, семейный, DVDRip] VO (Levelin)

 
Автор Сообщение

TorrentFilm ®

Пол:

Стаж: 2 года

Сообщений: 7741



Награды: Нет

Торрент-статистика

Создавать темы 30-Апр-2015 00:04

[Цитировать]

Большое приключение Рейнджера / Bark Ranger
Страна: Канада
Жанр: семейный, комедия, приключения
Год выпуска: 2015
Продолжительность: 01:21:28
Перевод: Одноголосый закадровый (Levelin)
Cубтитры: нет
Режиссер: Дункан Кристи / Duncan Christie
В ролях: Зои Фрейзер, Люциус Хойо, Марти Адамс, Джейсон Бликер, Ари Коэн
Описание: Рейнджер — жизнерадостный пес, который живет со своими хозяевами в заповеднике. Веселья там особого нет и большую часть времени ему приходится скучать. Но все изменится, когда однажды летом в заповедник сначала приедет девочка Хлоя с мамой, помешанной на здоровом образе жизни, а потом здесь еще обьявятся самые настоящие грабители банков...
Доп. информация: Телевизионный семейный фильм.
Производство Канадской Телерадиовещательной компании CBC
Перевод: М.Васильев
Озвучка: Семен Ващенко
Релиз подготовлен ВК группой Levelin. Русская озвучка и РГ Translators
IMDB
Сэмпл
Качество видео: DVDRip
Формат видео: AVI
Видео: 1059 Kbps, 640 x 272 (2.35:1) 23 976 fps, MPEG 4
Аудио: 128 Kbps, 48.0 KHz, 2 ch, MPEG Audio

MediaInfo

General
Complete name : C:\Users\master\Downloads\BarkRanger_Levelin.avi
Format : AVI
Format/Info : Audio Video Interleave
File size : 697 MiB
Duration : 1h 21mn
Overall bit rate : 1 197 Kbps
Video
ID : 0
Format : MPEG-4 Visual
Format profile : Advanced Simple@L5
Format settings, BVOP : 2
Format settings, QPel : No
Format settings, GMC : No warppoints
Format settings, Matrix : Default (H.263)
Codec ID : XVID
Codec ID/Hint : XviD
Duration : 1h 21mn
Bit rate : 1 059 Kbps
Width : 640 pixels
Height : 272 pixels
Display aspect ratio : 2.35:1
Frame rate : 23.976 fps
Color space : YUV
Chroma subsampling : 4:2:0
Bit depth : 8 bits
Scan type : Progressive
Compression mode : Lossy
Bits/(Pixel*Frame) : 0.254
Stream size : 617 MiB (89%)
Writing library : XviD 64
Audio
ID : 1
Format : MPEG Audio
Format version : Version 1
Format profile : Layer 3
Codec ID : 55
Codec ID/Hint : MP3
Duration : 1h 21mn
Bit rate mode : Constant
Bit rate : 128 Kbps
Channel(s) : 2 channels
Sampling rate : 48.0 KHz
Compression mode : Lossy
Stream size : 74.6 MiB (11%)
Alignment : Split accross interleaves
Interleave, duration : 42 ms (1.00 video frame)
Interleave, preload duration : 500 ms

Скриншот c названием фильма

Скриншоты





[Профиль] [ЛС]
Кто просматривает тему:

Форум Тема Автор Размер
Cборники 70х-80х-90х (Ретро) (Pop, Disco) VA - Самая Большая Дискотека 300 хитов - 2015, MP3, 320 kbps Magnat 2.66 GB
Rock (Rock) Пикник - Большая игра (3CD) - 2015 [FLAC, image +.cue, lossless] sergej644 1.19 GB
BBC BBC: Большое железнодорожное путешествие по континенту / Great Continental Railway Journeys [сезон 4 серии 1-6 из 6] (Dave Minchin) [2015 г., Документальный, история, путешествия, HDTVRip 720p] skorpionN 8.85 GB
BBC BBC: Преступники Британии. Разбойники с большой дороги, пираты и мошенники / Britain's Outlaws. Highwaymen, Pirates and Rogues [серии 1-3 из 3] (Andy Hall, Matthew Thomas, Gerry Dawson) [201... skorpionN 5.42 GB
History History: Большая история / Big History (Джеймс Грант Голдин / James Grant Goldin) [2013, Документально-постановочный, история, HDTVRip 720p] TorrentFilm 13.56 GB
Разное LuckyPatcher 4.4.6 - Патчер к большинству программ и игр (15.08.14) [Ru/Multi] sergej644 4 MB
Nat Geo Wild Nat Geo Wild: Жизнь на Большом Барьерном рифе / Life on the Reef [серии 1-3 из 3] (Карина Холден / Karina Holden) [2014 г., Документальный, научно-познавательный, HDRip-AVC 720p] skorpionN 3.14 GB
Nat Geo Wild Nat Geo Wild: Национальные парки Америки. Большой каньон / America's National Parks. Grand Canyon [сезон 1 серия 5](Henry M. Mix, Yann Sochaczewski) [2015 г., Документальный, природа, фл... skorpionN 1.53 GB
Показать сообщения:    

Текущее время: Сегодня 20:35

Часовой пояс: GMT



Вы не можете начинать темы
Вы не можете отвечать на сообщения
Вы не можете редактировать свои сообщения
Вы не можете удалять свои сообщения
Вы не можете голосовать в опросах
Вы не можете прикреплять файлы к сообщениям
Вы не можете скачивать файлы