Большое алиби / Le grand alibi (Паскаль Боницер / Pascal Bonitzer) [2008, Франция, детектив, DVDRip] DVO (Инис) + DVO (NLS)

 
Автор Сообщение

TorrentFilm ®

Пол:

Стаж: 2 года

Сообщений: 7741



Награды: Нет

Торрент-статистика

Создавать темы 19-Дек-2014 02:01

[Цитировать]

Большое алиби / Le grand alibi
Страна: Франция
Жанр: детектив
Год выпуска: 2008
Продолжительность: 01:29:00
Перевод 1: Профессиональный (двухголосый закадровый) Инис
Перевод 2: Профессиональный (двухголосый закадровый) NLS
Cубтитры: нет
Режиссер: Паскаль Боницер /Pascal Bonitzer
В ролях: Миу-Миу, Ламбер Вильсон, Валерия Бруни-Тедески, Пьер Ардити, Анн Косиньи, Матье Деми, Катерина Мурино, Морис Бенишу, Селин Саллетт, Агат Боницер, Дэни Брийян, Эмманюэль Рива, Николя Корецкий
Описание: Пьер Кольер мёртв… Во время отпускного уик-енда его тело нашли дома у Генри Паже, у которого он был в гостях. Его жена, Клэр, — потенциальный убийца. Она была с револьвером в руках рядом с жертвой во время обнаружения тела. Без сомнения у нее были причины совершить это убийство.
Однако, не всё так просто как кажется на первый раз. Револьвер не является оружием преступления, и каждый приглашенный в гости к Паже становится потенциальным подозреваемым. За дело берётся лейтенант Гранже…
Доп. информация: Экранизация произведения Агаты Кристи.
Сэмпл: http://multi-up.com/1014829
Качество видео: DVDRip - Исходник
Формат видео: AVI
Видео: 656x352 (1.86:1), 25 fps, XviD, 1032 kbps, 0.18 bit/pixel
Аудио 1: 48 kHz, MPEG Layer 3, 2 ch, 128.00 kbps, DVO (Инис) SATRip by max1wq
Аудио 2: 48 kHz, MPEG Layer 3, 2 ch, 128.00 kbps, DVO (NLS) - Отдельно.

MediaInfo

General
Complete name : E:\Раздачи\torrentfilm.net\Bolshoe_alibi_745_by_max1wq\Bolshoe_alibi_745_by_max1wq.avi
Format : AVI
Format/Info : Audio Video Interleave
File size : 745 MiB
Duration : 1h 29mn
Overall bit rate : 1 170 Kbps
Writing application : VirtualDubMod 1.5.10.2 (build 2540/release)
Writing library : VirtualDubMod build 2540/release
Video
ID : 0
Format : MPEG-4 Visual
Format profile : Advanced Simple@L5
Format settings, BVOP : 2
Format settings, QPel : No
Format settings, GMC : No warppoints
Format settings, Matrix : Custom
Codec ID : XVID
Codec ID/Hint : XviD
Duration : 1h 29mn
Bit rate : 1 033 Kbps
Width : 656 pixels
Height : 352 pixels
Display aspect ratio : 1.85:1
Frame rate : 25.000 fps
Color space : YUV
Chroma subsampling : 4:2:0
Bit depth : 8 bits
Scan type : Progressive
Compression mode : Lossy
Bits/(Pixel*Frame) : 0.179
Stream size : 657 MiB (88%)
Writing library : XviD 73
Audio
ID : 1
Format : MPEG Audio
Format version : Version 1
Format profile : Layer 3
Codec ID : 55
Codec ID/Hint : MP3
Duration : 1h 29mn
Bit rate mode : Constant
Bit rate : 128 Kbps
Channel(s) : 2 channels
Sampling rate : 48.0 KHz
Compression mode : Lossy
Stream size : 81.5 MiB (11%)
Alignment : Aligned on interleaves
Interleave, duration : 40 ms (1.00 video frame)
Interleave, preload duration : 504 ms
General
Complete name : E:\Раздачи\torrentfilm.net\Bolshoe_alibi_745_by_max1wq\Bolshoe_alibi_745_by_max1wq_NLS.mp3
Format : MPEG Audio
File size : 81.5 MiB
Duration : 1h 29mn
Overall bit rate mode : Constant
Overall bit rate : 128 Kbps
Genre : Other
Audio
Format : MPEG Audio
Format version : Version 1
Format profile : Layer 3
Duration : 1h 29mn
Bit rate mode : Constant
Bit rate : 128 Kbps
Channel(s) : 2 channels
Sampling rate : 48.0 KHz
Compression mode : Lossy
Stream size : 81.5 MiB (100%)
Сравнениеhttp://torrentfilm.net/forum/viewtopic.php?t=3227371
http://screenshotcomparison.com/comparison/101215/picture:0
[Профиль] [ЛС]

Создавать темы 06-Авг-2015 22:54 (спустя 7 месяцев 18 дней)

Топик был перенесен из форума Фильмы до 2014 года в форум Фильмы до 2012 года
sergej644
 

Создавать темы 12-Июн-2016 08:51 (спустя 1 год 5 месяцев)

Топик был перенесен из форума Фильмы 2011 года в форум Фильмы 2006-2008 года
Russian Mafia
 
Кто просматривает тему:

Форум Тема Автор Размер
Cборники 70х-80х-90х (Ретро) (Pop, Disco) VA - Самая Большая Дискотека 300 хитов - 2015, MP3, 320 kbps Magnat 2.66 GB
Rock (Rock) Пикник - Большая игра (3CD) - 2015 [FLAC, image +.cue, lossless] sergej644 1.19 GB
BBC BBC: Большое железнодорожное путешествие по континенту / Great Continental Railway Journeys [сезон 4 серии 1-6 из 6] (Dave Minchin) [2015 г., Документальный, история, путешествия, HDTVRip 720p] skorpionN 8.85 GB
BBC BBC: Преступники Британии. Разбойники с большой дороги, пираты и мошенники / Britain's Outlaws. Highwaymen, Pirates and Rogues [серии 1-3 из 3] (Andy Hall, Matthew Thomas, Gerry Dawson) [201... skorpionN 5.42 GB
History History: Большая история / Big History (Джеймс Грант Голдин / James Grant Goldin) [2013, Документально-постановочный, история, HDTVRip 720p] TorrentFilm 13.56 GB
Разное LuckyPatcher 4.4.6 - Патчер к большинству программ и игр (15.08.14) [Ru/Multi] sergej644 4 MB
Nat Geo Wild Nat Geo Wild: Жизнь на Большом Барьерном рифе / Life on the Reef [серии 1-3 из 3] (Карина Холден / Karina Holden) [2014 г., Документальный, научно-познавательный, HDRip-AVC 720p] skorpionN 3.14 GB
Nat Geo Wild Nat Geo Wild: Национальные парки Америки. Большой каньон / America's National Parks. Grand Canyon [сезон 1 серия 5](Henry M. Mix, Yann Sochaczewski) [2015 г., Документальный, природа, фл... skorpionN 1.53 GB
Показать сообщения:    

Текущее время: Сегодня 05:15

Часовой пояс: GMT



Вы не можете начинать темы
Вы не можете отвечать на сообщения
Вы не можете редактировать свои сообщения
Вы не можете удалять свои сообщения
Вы не можете голосовать в опросах
Вы не можете прикреплять файлы к сообщениям
Вы не можете скачивать файлы