Большие спорщики / The Great Debaters (Дензел Вашингтон / Denzel Washington) [2007, США, драма, биография, HDRip] MVO (Кинопоказ) + Original Eng

 
Автор Сообщение

TorrentFilm ®

Пол:

Стаж: 2 года

Сообщений: 7741



Награды: Нет

Торрент-статистика

Создавать темы 19-Фев-2015 00:01

[Цитировать]

Большие спорщики / The Great Debaters
Страна: США
Жанр: драма, биография
Год выпуска: 2007
Продолжительность: 02:06:54
Перевод: Профессиональный (многоголосый закадровый) компания "Первый ТВЧ" по заказу Национальной Спутниковой Компании
Cубтитры: нет
Оригинальная аудиодорожка: английский
Режиссер: Дензел Вашингтон / Denzel Washington
В ролях: Дензел Вашингтон, Нэйт Паркер, Джерни Смоллетт, Дэнзел Уитакер, Жермен Уильямс, Форест Уитакер, Джина Равера, Джон Херд, Кимберли Элиз, Девин А. Тайлер, Трентон МакКлейн Бойд, Ричи Монтгомери, Джексон Уолкер, Тим Парати, Глен Пауэлл мл., Дэмиен Лик, Вольтер Рико Стерлинг
Описание: Драма, основанная на реальных событиях, повествует об упорном учителе, готовящем из небольшой группы учеников маленького техасского колледжа элитную команду для студенческих дебатов. В финале им предстоит сразиться с непобедимыми спорщиками из Гарварда.
Сэмпл: http://multi-up.com/1033297
Качество видео: HDRip
Формат видео: AVI
Видео: MPEG4, XviD, 720x304 (2.35), 23.976 fps, 1 809 Kbps (0.345 bit/pixel)
Аудио: AC-3, 48.0 KHz, 2 ch, 192 Kbps, CBR - русский
Аудио 2: AC-3, 48.0 KHz, 6 ch, 448 Kbps, CBR - английский

MediaInfo

Общее
Полное имя : K:\Большие спорщики.avi
Формат : AVI
Формат/Информация : Audio Video Interleave
Профиль формата : OpenDML
Размер файла : 2,19 Гбайт
Продолжительность : 2 ч. 6 м.
Общий поток : 2467 Кбит/сек
Название фильма : Большие спорщики / The Great Debaters (2007)
Программа кодирования : VirtualDubMod 1.5.10.2 (build 2540/release)
Библиотека кодирования : VirtualDubMod build 2540/release
Правообладатель : miha2154
Видео
Идентификатор : 0
Формат : MPEG-4 Visual
Профиль формата : Advanced Simple@L5
Параметр BVOP формата : 1
Параметр QPel формата : Нет
Параметр GMC формата : Без точки перехода
Параметр матрицы формата : Выборочная
Идентификатор кодека : XVID
Идентификатор кодека/Подсказка : XviD
Продолжительность : 2 ч. 6 м.
Битрейт : 1809 Кбит/сек
Ширина : 720 пикселей
Высота : 304 пикселя
Соотношение сторон : 2,35:1
Частота кадров : 23,976 кадра/сек
Цветовое пространство : YUV
Субдискретизация насыщенности : 4:2:0
Битовая глубина : 8 бит
Тип развёртки : Прогрессивная
Метод сжатия : С потерями
Бит/(Пиксели*Кадры) : 0.345
Размер потока : 1,60 Гбайт (73%)
Библиотека кодирования : XviD 65
Аудио #1
Идентификатор : 1
Формат : AC-3
Формат/Информация : Audio Coding 3
Расширение режима : CM (complete main)
Параметр Endianness формата : Big
Идентификатор кодека : 2000
Продолжительность : 2 ч. 6 м.
Вид битрейта : Постоянный
Битрейт : 192 Кбит/сек
Каналы : 2 канала
Расположение каналов : Front: L R
Частота : 48,0 КГц
Битовая глубина : 16 бит
Метод сжатия : С потерями
Размер потока : 174 Мбайт (8%)
Выравнивание : Разделение по промежуткам
Продолжительность промежутка : 42 мс. (1,00 видеокадр)
Время предзагрузки промежутка : 500 мс.
Заголовок : Профессиональный (многоголосый закадровый)
Аудио #2
Идентификатор : 2
Формат : AC-3
Формат/Информация : Audio Coding 3
Расширение режима : CM (complete main)
Параметр Endianness формата : Big
Идентификатор кодека : 2000
Продолжительность : 2 ч. 6 м.
Вид битрейта : Постоянный
Битрейт : 448 Кбит/сек
Каналы : 6 каналов
Расположение каналов : Front: L C R, Side: L R, LFE
Частота : 48,0 КГц
Битовая глубина : 16 бит
Метод сжатия : С потерями
Размер потока : 407 Мбайт (18%)
Выравнивание : Разделение по промежуткам
Продолжительность промежутка : 42 мс. (1,00 видеокадр)
Время предзагрузки промежутка : 500 мс.
Заголовок : Английский

Скриншоты


[Профиль] [ЛС]

Создавать темы 06-Авг-2015 22:44 (спустя 5 месяцев 15 дней)

Топик был перенесен из форума Фильмы до 2014 года в форум Фильмы до 2012 года
sergej644
 
Кто просматривает тему:

Форум Тема Автор Размер
Cборники 70х-80х-90х (Ретро) (Pop, Disco) VA - Самая Большая Дискотека 300 хитов - 2015, MP3, 320 kbps Magnat 2.66 GB
Rock (Rock) Пикник - Большая игра (3CD) - 2015 [FLAC, image +.cue, lossless] sergej644 1.19 GB
BBC BBC: Большое железнодорожное путешествие по континенту / Great Continental Railway Journeys [сезон 4 серии 1-6 из 6] (Dave Minchin) [2015 г., Документальный, история, путешествия, HDTVRip 720p] skorpionN 8.85 GB
BBC BBC: Преступники Британии. Разбойники с большой дороги, пираты и мошенники / Britain's Outlaws. Highwaymen, Pirates and Rogues [серии 1-3 из 3] (Andy Hall, Matthew Thomas, Gerry Dawson) [201... skorpionN 5.42 GB
History History: Большая история / Big History (Джеймс Грант Голдин / James Grant Goldin) [2013, Документально-постановочный, история, HDTVRip 720p] TorrentFilm 13.56 GB
Разное LuckyPatcher 4.4.6 - Патчер к большинству программ и игр (15.08.14) [Ru/Multi] sergej644 4 MB
Nat Geo Wild Nat Geo Wild: Жизнь на Большом Барьерном рифе / Life on the Reef [серии 1-3 из 3] (Карина Холден / Karina Holden) [2014 г., Документальный, научно-познавательный, HDRip-AVC 720p] skorpionN 3.14 GB
Nat Geo Wild Nat Geo Wild: Национальные парки Америки. Большой каньон / America's National Parks. Grand Canyon [сезон 1 серия 5](Henry M. Mix, Yann Sochaczewski) [2015 г., Документальный, природа, фл... skorpionN 1.53 GB
Показать сообщения:    

Текущее время: Сегодня 04:47

Часовой пояс: GMT



Вы не можете начинать темы
Вы не можете отвечать на сообщения
Вы не можете редактировать свои сообщения
Вы не можете удалять свои сообщения
Вы не можете голосовать в опросах
Вы не можете прикреплять файлы к сообщениям
Вы не можете скачивать файлы